Интеллигентный торрент-трекер
canvas not supported
Нас вместе: 4 303 019

Чаггингтон. Весёлые паровозики из Чаггингтона / Chuggington (2008 - 2011) DVDRip (Сезон 1-2, 78 серий из 78)


 
 
RSS
Начать новую тему   Ответить на тему    Торрент-трекер NNM-Club -> Мультфильмы -> Зарубежные Мультсериалы
Автор Сообщение
andro​id201​4​ ®
Стаж: 4 года 1 мес.
Сообщений: 18
Ratio: 16,584
Поблагодарили: 907
100%
Весёлые паровозики из Чаггингтона / Chuggington (2008 - 2011) DVDRip (Сезон 1-2, 78 серий из 78)
Страна: США
Год выпуска: 2008-2011
Жанр: Детский мультфильм
Режиссер: Крис Роуз, Сара Болл

Язык: Русский
Перевод: Профессиональный (Дублированный)
Автор перевода: Перевод ЗАО "Первый канал. Всемирная сеть"

Описание:
Добро пожаловать в Чаггингтон — удивительный городок, населенный приветливыми паровозиками. Каждый день они узнают что-то новое, радуются открытиям и обожают приключения!
Центр Чаггингтона — депо, место обитания дружных паровозов. Каждый день отсюда в разные концы города и за его пределы отправляются составы, чтобы доставить по адресам важные грузы. Трое друзей — паровозики Коко, Уилсон и Брюстер — еще совсем малыши, под руководством опытных наставников они осваивают науку доставки грузов. Пусть они и непоседы, и любят подурачиться, но никогда не сходят с рельсов, все задания исполняют на пятерку, а еще маленькие «чаггеры» всегда помогают друг другу и жителям города. Уилсон — этот паровозик очень рад, что оказался в Чаггингтоне. Он еще не все умеет, но постоянно учится. Брюстер — сильный, смелый ученик и надежный друг, который всегда придет на помощь. А еще он умеет громко гудеть! Коко — девочка-кокетка, самый быстрый состав в Чаггингтоне, потому что она — электровоз. Коко обожает гоняться наперегонки. А еще есть Пит — самый старый и уважаемый паровоз в Чаггингтоне, наставники новичков Данбар и Гаррисон, быстрый пассажирский поезд Эмери и всегда очень занятой Чесворт. Помогают обслуживать депо с паровозами компьютер Ви, паренек Морган и его подруга Карен. Веселые динамичные эпизоды мультсериала не только развлекут малыша, но также научат его важным социальным и практическим навыкам: быть ответственным, выполнять нужные поручения, спасать друзей из беды и ценить помощь мудрых взрослых. Прекрасный мультсериал для детей любого возраста.



Формат: AVI
Продолжительность: 78x ~ 00:10:00

Качество видео: DVDRip
Видеокодек: Xvid
Битрейт видео: ~ 2000 kb/s
Размер кадра: 720 x 400
Аудиокодек: AC-3, 2 канала, 48 кГц, 224 Кбит/с, 16 бит
Общее
Полное имя : D:\Wilson and the Elephant.avi
Формат : AVI
Формат/Информация : Audio Video Interleave
Размер файла : 155 Мбайт
Продолжительность : 10 м.
Общий поток : 2129 Кбит/сек
Программа кодирования : VirtualDubModRus 1.5.10.2 (build 2542/release)
Библиотека кодирования : VirtualDubMod build 2542/release

Видео
Идентификатор : 0
Формат : MPEG-4 Visual
Профиль формата : Advanced Simple@L5
Параметр BVOP формата : 2
Параметр QPel формата : Нет
Параметр GMC формата : Без точки перехода
Параметр матрицы формата : Default (MPEG)
Режим смешивания : Сжатый битовый поток
Идентификатор кодека : XVID
Идентификатор кодека/Подсказка : XviD
Продолжительность : 10 м.
Битрейт : 1895 Кбит/сек
Ширина : 720 пикселей
Высота : 400 пикселей
Соотношение сторон : 16:9
Частота кадров : 25,000 кадров/сек
Цветовое пространство : YUV
Субдискретизация насыщенности : 4:2:0
Битовая глубина : 8 бит
Тип развёртки : Прогрессивная
Метод сжатия : С потерями
Бит/(Пиксели*Кадры) : 0.263
Размер потока : 138 Мбайт (89%)
Библиотека кодирования : XviD 64

Аудио
Идентификатор : 1
Формат : AC-3
Формат/Информация : Audio Coding 3
Расширение режима : CM (complete main)
Параметр Endianness формата : Big
Идентификатор кодека : 2000
Продолжительность : 10 м.
Вид битрейта : Постоянный
Битрейт : 224 Кбит/сек
Каналы : 2 канала
Расположение каналов : Front: L R
Частота : 48,0 КГц
Битовая глубина : 16 бит
Метод сжатия : С потерями
Размер потока : 16,3 Мбайт (11%)
Выравнивание : Разделение по промежуткам
Продолжительность промежутка : 40 мс. (1,00 видеокадр)
Время предзагрузки промежутка : 500 мс.
1 Не угнаться за Коко
2 Уилсон и слон
3 Скрипучий Уилсон
4 Коко и туннель
5 Рассеяный Брюстер
6 Ходж и магнит
7 Коко и белки
8 Уилсон принимает ванну
9 Банановый проказник
10 Уилсон и мороженное
11 Экскурсия старого паровоза Пита
12 Эдди опять опаздывает
13 Плавный Уилсон
14 Помощники Фростини
15 Большая гонка
16 Супер Брюстер
17 Щенок
18 Зефи и сирена
19 Коко на страже
20 Прогулка с Олвин
21 Брюстер и дракон
22 Проснись, Уилсон
23 Всезнайка Брюстер
24 Коко на экзамене
25 Уилсон и мороженое
26 Экскурсия Уилсона
27 Секрет Ходжа
28 Фруктовый праздник Фростини
29 Зефи-репортёр
30 Эмери - супер-звезда
31 Осторожней, Уилсон!
32 Хобби Брюстера
33 Обезьянья работа Зефи
34 Бедный старина Пит
35 Инспектор Эмери
36 Доктор Уилсон
37 Невероятные приключения Мтамбо
38 Колыбельная для Чезворда
39 Спор Ходжа и Коко
40 Брюстер спешит на помощь
41 Уилсон и малярный вагон
42 Эдди находит время
43 Королевское путешествие Мтамбо
44 Уилсон и дикий ветер
45 Котел для Пита
46 Уилсон решает полетать
47 Маленький помощник Брюстера
48 пускает пузыри
49 Коко - босс
50 Уилсон и вагон с бумагой
51 Парад в честь Пита
52 Тренировка Гаррисона
53 Новый наряд Коко
54 Самый жаркий день
55 Важное правило
56 Камера, свет, мотор!
57 Кто сильнее
58 Штормовое предупреждение
59 Снимок для газеты
60 Кто будет первым
61 Тише едешь дальше будешь
62 Всезнайка Ходж
63 Динозавр в городе
64 Зимнее приключение
65 Поезда спешат на помощь
66 Мастер на все руки
67 Домой в космос
68 Ледяной дождь
69 Роль в кино
70 Приключение в горах
71 Специальный корреспондент
72 Новый дом для пчёл
73 Встреча с мэром
74 Премия года
75 Время ремонта
76 Новое изобретение
77 Общая награда
78 Обманывать не хорошо
Скриншоты:


Чаггингтон на NNM-club

Время раздачи: 24/7
[NNM-Club.me]_Veselyie parovoziki.torrent
 Торрент: Платиновая раздача  Зарегистрирован
 
Скачать


Примагнититься
 Зарегистрирован:   15 Мар 2014 19:24:25
 Размер:   11,6 GB  (
 Рейтинг:   4,9 (Голосов: 110)
 Поблагодарили:   443
 Проверка:   Оформление проверено модератором 16 Мар 2014 21:45:55
Как cкачать  ·  Как раздать  ·  Правильно оформить  ·  Поднять ратио!  
Alex_​N_Smi​th​

Online
Стаж: 5 лет 7 мес.
Сообщений: 47
Ratio: 1,732
100%
russia.gif
Спасибо! Сыночек будет доволен!
andro​id201​4​ ®
Стаж: 4 года 1 мес.
Сообщений: 18
Ratio: 16,584
Поблагодарили: 907
100%
Пожалуйста, я брату искал, качал и целая коллекция собралась (решил выложить).
Karmans
Стаж: 6 лет 9 мес.
Сообщений: 1
Ratio: 32,869
5.56%
russia.gif
Спасибо большое за такой труд!
stardust
Стаж: 7 лет 11 мес.
Сообщений: 24
Ratio: 10,809
1.1%
ukraine.gif
Спасибо. Скачаю в обозримом будущем.
WizarDSaNa
Стаж: 4 года
Сообщений: 24
Ratio: 152,989
100%
Спасибо за раздачу... малые будут в восторге!!!
Zzvonkiy
Стаж: 5 лет 11 мес.
Сообщений: 121
Ratio: 58,523
100%
russia.gif
будем брать!!!
969rus02
Стаж: 7 лет 10 мес.
Сообщений: 67
Ratio: 0,867
89.21%
Откуда: Уфа
russia.gif
детишки балдеют
спасибо
stasss73
Стаж: 7 лет
Сообщений: 79
Ratio: 31,452
28.56%
russia.gif
Кто-нибудь знает, где взять 4 сезон?! Жопа какая-то в инете - везде только первый и второй!!!
Смартфон
Стаж: 6 лет 4 мес.
Сообщений: 34
Ratio: 0,591
100%
Откуда: Барна​ул,Ал​тайск​ий​ край
ussr.gif
Раздайте пожалуйста!
Hanni​bal13​1087​
Стаж: 4 года 5 мес.
Сообщений: 4
Ratio: 1,333
0.23%
Дочь обожает эти мультики спасибо!!!
H_elen54
Стаж: 6 лет 4 мес.
Сообщений: 7
Ratio: 1,926
74.84%
russia.gif
Cпасибо и с Новым Годом!!!! огромное удовольствие видеть радость ребенка!! :НГ_прыжок:
andro​id201​4​ ®
Стаж: 4 года 1 мес.
Сообщений: 18
Ratio: 16,584
Поблагодарили: 907
100%
Всегда пожалуйста :приветствую:
Показать сообщения:   
Начать новую тему   Ответить на тему    Торрент-трекер NNM-Club -> Мультфильмы -> Зарубежные Мультсериалы Часовой пояс: GMT + 3
Страница 1 из 1