Интеллигентный торрент-трекер
canvas not supported
Нас вместе: 4 254 851

Mono - 9 albums (2001-2010) [FLAC|Lossless] <Post-Rock, Instrumental, Ambient>


 
 
RSS
Начать новую тему   Ответить на тему    Торрент-трекер NNM-Club -> East Asian Music -> Asian Rock, Metal (Lossless)
Автор Сообщение
Fall Into The Sky ®
Стаж: 8 лет 7 мес.
Сообщений: 8074
Ratio: 42,457
Раздал: 18,62 TB
Поблагодарили: 29794
100%
Mono - 9 albums (2001-2010)

ImageГод: 2001-2010
Жанр: Post-Rock, Instrumental, Ambient
Продолжительность: 09:28:46

Аудиокодек: FLAC (tracks)
Битрейт аудио: Lossless

Mono (Япония) - группа из четырёх участников, играющая пост-рок, и активная как в Японии, так и за её пределами. Отчасти благодаря многочисленным и продолжительным турам по Европе и Америке группа и завоевала тысячи поклонников по всему миру. Бесконечными песнями и тонкими нитями мелодий, они напоминают некоторых гигантов жанра, таких как Mogwai и Sigur Rós, при этом группа придает своим песням собственные уникальные черты.

Стоит отметить, что за запись и аранжировку нескольких дисков группы ответственен ни кто иной, как Steve Albini, который работал с такими группами, как Nirvana, Melt-Banana или Mogwai.
MONO были созданы в Токио в октябре 1999 года. В первый состав группы вошли гитаристы Goto и Yoda и ударник Takada. В январе следующего года они сыграли свой первый большой концерт, и спустя два месяца к группе присоединилась басистка Tamaki. С тех пор состав группы не менялся.

Альбомы:
Image
Продолжительность: 01:03:49

Треклист:
01. Karelia (Opus 2) (12:30)
02. The Kidnapper Bell (10:00)
03. Jackie Says (07:31)
04. Op Beach (05:48)
05. Holy (01:40)
06. Error #9 (12:33)
07. L'America (04:37)
08. Human Highway (09:05)

Код:
EAC extraction logfile from 3. November 2006, 13:14 for CD
Mono / Under the Pipal Tree

Used drive  : HL-DT-STRW/DVD_GCC-4244N   Adapter: 1  ID: 0
Read mode   : Secure with NO C2, accurate stream, disable cache
Read offset correction : 102
Overread into Lead-In and Lead-Out : No

Used output format : C:\Program Files\FLAC\flac.exe   (User Defined Encoder)
                     320 kBit/s
                     Additional command line options : -T "artist=%a" -T "title=%t" -T "album=%g" -T "date=%y" -T "tracknumber=%n" -T "genre=%m" %s

Other options      :
    Fill up missing offset samples with silence : Yes
    Delete leading and trailing silent blocks : No
    Native Win32 interface for Win NT & 2000

Track  1
     Filename C:\Documents and Settings\Johan\Mijn documenten\muziek\Mono\Under the Pipal Tree\01 - Mono - Karelia (Opus 2) .wav

     Pre-gap length  0:00:02.00

     Peak level 98.8 %
     Track quality 100.0 %
     Test CRC FC14D837
     Copy CRC FC14D837
     Copy OK

Track  2
     Filename C:\Documents and Settings\Johan\Mijn documenten\muziek\Mono\Under the Pipal Tree\02 - Mono - The Kidnapper Bell .wav

     Peak level 98.8 %
     Track quality 99.9 %
     Test CRC BFD4ADD0
     Copy CRC BFD4ADD0
     Copy OK

Track  3
     Filename C:\Documents and Settings\Johan\Mijn documenten\muziek\Mono\Under the Pipal Tree\03 - Mono - Jackie Says .wav

     Peak level 98.8 %
     Track quality 100.0 %
     Test CRC 08DBA88A
     Copy CRC 08DBA88A
     Copy OK

Track  4
     Filename C:\Documents and Settings\Johan\Mijn documenten\muziek\Mono\Under the Pipal Tree\04 - Mono - Op Beach .wav

     Pre-gap length  0:00:01.74

     Peak level 98.8 %
     Track quality 100.0 %
     Test CRC 438B3C89
     Copy CRC 438B3C89
     Copy OK

Track  5
     Filename C:\Documents and Settings\Johan\Mijn documenten\muziek\Mono\Under the Pipal Tree\05 - Mono - Holy .wav

     Pre-gap length  0:00:02.85

     Peak level 36.5 %
     Track quality 100.0 %
     Test CRC 3BB24E6E
     Copy CRC 3BB24E6E
     Copy OK

Track  6
     Filename C:\Documents and Settings\Johan\Mijn documenten\muziek\Mono\Under the Pipal Tree\06 - Mono - Error #9 .wav

     Peak level 98.8 %
     Track quality 100.0 %
     Test CRC 77DB0F54
     Copy CRC 77DB0F54
     Copy OK

Track  7
     Filename C:\Documents and Settings\Johan\Mijn documenten\muziek\Mono\Under the Pipal Tree\07 - Mono - L'America .wav

     Pre-gap length  0:00:01.05

     Peak level 98.8 %
     Track quality 100.0 %
     Test CRC 3331316C
     Copy CRC 3331316C
     Copy OK

Track  8
     Filename C:\Documents and Settings\Johan\Mijn documenten\muziek\Mono\Under the Pipal Tree\08 - Mono - Human Highway .wav

     Pre-gap length  0:00:01.01

     Peak level 98.8 %
     Track quality 100.0 %
     Test CRC 48BCC0F9
     Copy CRC 48BCC0F9
     Copy OK

No errors occured

End of status report
Код:
-----------------------

DON'T MODIFY THIS FILE

-----------------------

PERFORMER: auCDtect Task Manager, ver. 1.5.1RC4 build 1.5.1.5
Copyright (c) 2008-2010 y-soft. All rights reserved
http://y-soft.org

ANALYZER: auCDtect: CD records authenticity detector, version 0.8.2
Copyright (c) 2004 Oleg Berngardt. All rights reserved.
Copyright (c) 2004 Alexander Djourik. All rights reserved.

FILE: 08 - Human Highway.flac
  Size: 48432837 Hash: 9086313CA42BA03CD0D5E5BB88510C74 Accuracy: -m0
  Conclusion: CDDA 100%
  Signature: 35C2775268F7E617AB7192720E664C0D93098512
FILE: 07 - L'America.flac
  Size: 23953134 Hash: D5CC869C57DEF8F9379988CCCC4DAC92 Accuracy: -m0
  Conclusion: CDDA 100%
  Signature: 16137F9745511970C7694D681FB171809432DD86
FILE: 06 - Error #9.flac
  Size: 70343008 Hash: 6B91331AF8E0FDD0CD7FA1C3F1CC30E4 Accuracy: -m0
  Conclusion: CDDA 43%
  Signature: 914852BB2B0298105449293F7B1F07CCF2107486
FILE: 05 - Holy.flac
  Size: 5888824 Hash: 13DA3C132C7AF1B63960D0F92E1A5F9A Accuracy: -m0
  Conclusion: MPEG 100%
  Signature: E7ACDDFA5BA6E144E48CAEBCFD27CB9E6098C0A7
FILE: 04 - Op Beach.flac
  Size: 30891003 Hash: A973C6ACB4969D156C728F673BA9C773 Accuracy: -m0
  Conclusion: MPEG 92%
  Signature: 523DCC1DC3979C25DDD8D9326E555770AADD9EE8
FILE: 03 - Jackie Says.flac
  Size: 45598141 Hash: 5975C1EEBD251F45186687CA225C83B9 Accuracy: -m0
  Conclusion: CDDA 62%
  Signature: 299BA22EA2D82B6281E9A282F5003B801BD1C28A
FILE: 02 - The Kidnapper Bell.flac
  Size: 57787768 Hash: 322ACF65A92D438DFDD79CCCCAAE45AA Accuracy: -m0
  Conclusion: CDDA 100%
  Signature: 56F1408B1FD6BCAA8B3FDFBC7E91572D76F97D8B
FILE: 01 - Karelia (Opus 2).flac
  Size: 75644751 Hash: EA99758D4591870CAC25685E5AB672FF Accuracy: -m0
  Conclusion: CDDA 92%
  Signature: 814C17FFE5AE2A53C0A2153880DC6D3D80FFEC79

Image
Продолжительность: 00:51:14

Треклист:
01. Where Am I (02:41)
02. Com(?) (15:55)
03. Sabbath (04:51)
04. Mopish Morning, Halation Wiper (02:54)
05. A Speeding Car (08:51)
06. Loco Tracks (06:39)
07. Halo (07:43)
08. Giant Me On The Other Side (01:37)

Код:
X Lossless Decoder version 20090320 (105.1)

XLD extraction logfile from 2009-05-05 18:14:50 +0100

MONO / One Step More and You Die

Used drive : FREECOM_ DVD+/-RW20J6 (revision 9F51)

Use cdparanoia mode     : YES (CDParanoia III 10.2 engine)
Disable audio cache     : OK for the drive with cache less than 2750KB
Make use of C2 pointers : NO
Read offset correction  : 6
Max retry count         : 100

TOC of the extracted CD
     Track |   Start  |  Length  | Start sector | End sector
    ---------------------------------------------------------
        1  | 00:00:00 | 02:41:37 |         0    |    12111
        2  | 02:41:37 | 15:55:40 |     12112    |    83776
        3  | 18:37:02 | 04:51:15 |     83777    |   105616
        4  | 23:28:17 | 02:54:63 |    105617    |   118729
        5  | 26:23:05 | 08:51:32 |    118730    |   158586
        6  | 35:14:37 | 06:39:20 |    158587    |   188531
        7  | 41:53:57 | 07:43:20 |    188532    |   223276
        8  | 49:37:02 | 01:37:35 |    223277    |   230586

List of alternate offset correction values
        #  | Absolute | Relative | Confidence
    ------------------------------------------
        1  |   -575   |   -581   |      4
        2  |  -1261   |  -1267   |      4
        3  |   -425   |   -431   |      2

Track 01
    Filename : /Users/***/Music/Ripping/01. Where Am I.flac

    CRC32 hash (test run)  : 906D6AA7
    CRC32 hash             : 906D6AA7
    CRC32 hash (skip zero) : 9B125EA5
    AccurateRip signature  : F1939B65
        ->Accurately ripped! (confidence 19)
    Statistics
        Read error                           : 0
        Skipped (treated as error)           : 0
        Edge jitter error (maybe fixed)      : 0
        Atom jitter error (maybe fixed)      : 0
        Drift error (maybe fixed)            : 0
        Dropped bytes error (maybe fixed)    : 0
        Duplicated bytes error (maybe fixed) : 0
        Inconsistency in error sectors       : 0

Track 02
    Filename : /Users/***/Music/Ripping/02. Com(?).flac

    CRC32 hash (test run)  : 2D9C4FB8
    CRC32 hash             : 2D9C4FB8
    CRC32 hash (skip zero) : C4C67F24
    AccurateRip signature  : E560721B
        ->Accurately ripped! (confidence 19)
    Statistics
        Read error                           : 0
        Skipped (treated as error)           : 0
        Edge jitter error (maybe fixed)      : 1
        Atom jitter error (maybe fixed)      : 0
        Drift error (maybe fixed)            : 0
        Dropped bytes error (maybe fixed)    : 1
        Duplicated bytes error (maybe fixed) : 1
        Inconsistency in error sectors       : 0

Track 03
    Filename : /Users/***/Music/Ripping/03. Sabbath.flac

    CRC32 hash (test run)  : 85F34EE4
    CRC32 hash             : 85F34EE4
    CRC32 hash (skip zero) : E9AD3D0C
    AccurateRip signature  : F5EBD87A
        ->Accurately ripped! (confidence 19)
    Statistics
        Read error                           : 0
        Skipped (treated as error)           : 0
        Edge jitter error (maybe fixed)      : 0
        Atom jitter error (maybe fixed)      : 0
        Drift error (maybe fixed)            : 0
        Dropped bytes error (maybe fixed)    : 0
        Duplicated bytes error (maybe fixed) : 0
        Inconsistency in error sectors       : 0

Track 04
    Filename : /Users/***/Music/Ripping/04. Mopish Morning, Halation Wiper.flac

    CRC32 hash (test run)  : BA8D5666
    CRC32 hash             : BA8D5666
    CRC32 hash (skip zero) : D7562378
    AccurateRip signature  : 7303433F
        ->Accurately ripped! (confidence 19)
    Statistics
        Read error                           : 0
        Skipped (treated as error)           : 0
        Edge jitter error (maybe fixed)      : 0
        Atom jitter error (maybe fixed)      : 0
        Drift error (maybe fixed)            : 0
        Dropped bytes error (maybe fixed)    : 0
        Duplicated bytes error (maybe fixed) : 0
        Inconsistency in error sectors       : 0

Track 05
    Filename : /Users/***/Music/Ripping/05. A Speeding Car.flac

    CRC32 hash (test run)  : F1BCF68F
    CRC32 hash             : F1BCF68F
    CRC32 hash (skip zero) : 78EAC40A
    AccurateRip signature  : 356019D2
        ->Accurately ripped! (confidence 19)
    Statistics
        Read error                           : 0
        Skipped (treated as error)           : 0
        Edge jitter error (maybe fixed)      : 0
        Atom jitter error (maybe fixed)      : 0
        Drift error (maybe fixed)            : 0
        Dropped bytes error (maybe fixed)    : 0
        Duplicated bytes error (maybe fixed) : 0
        Inconsistency in error sectors       : 0

Track 06
    Filename : /Users/***/Music/Ripping/06. Loco Tracks.flac

    CRC32 hash (test run)  : 5A28917D
    CRC32 hash             : 5A28917D
    CRC32 hash (skip zero) : 82BA75BC
    AccurateRip signature  : D7286FA6
        ->Accurately ripped! (confidence 19)
    Statistics
        Read error                           : 0
        Skipped (treated as error)           : 0
        Edge jitter error (maybe fixed)      : 0
        Atom jitter error (maybe fixed)      : 0
        Drift error (maybe fixed)            : 0
        Dropped bytes error (maybe fixed)    : 0
        Duplicated bytes error (maybe fixed) : 0
        Inconsistency in error sectors       : 0

Track 07
    Filename : /Users/***/Music/Ripping/07. Halo.flac

    CRC32 hash (test run)  : 238DACF1
    CRC32 hash             : 238DACF1
    CRC32 hash (skip zero) : 461AA22E
    AccurateRip signature  : 78ECC04C
        ->Accurately ripped! (confidence 19)
    Statistics
        Read error                           : 0
        Skipped (treated as error)           : 0
        Edge jitter error (maybe fixed)      : 0
        Atom jitter error (maybe fixed)      : 0
        Drift error (maybe fixed)            : 0
        Dropped bytes error (maybe fixed)    : 0
        Duplicated bytes error (maybe fixed) : 0
        Inconsistency in error sectors       : 0

Track 08
    Filename : /Users/***/Music/Ripping/08. Giant Me On The Other Side.flac

    CRC32 hash (test run)  : 35659B29
    CRC32 hash             : 35659B29
    CRC32 hash (skip zero) : A68E6C0D
    AccurateRip signature  : 84B23EB6
        ->Accurately ripped! (confidence 19)
    Statistics
        Read error                           : 0
        Skipped (treated as error)           : 0
        Edge jitter error (maybe fixed)      : 0
        Atom jitter error (maybe fixed)      : 0
        Drift error (maybe fixed)            : 0
        Dropped bytes error (maybe fixed)    : 0
        Duplicated bytes error (maybe fixed) : 0
        Inconsistency in error sectors       : 0

No errors occurred

End of status report
Код:
-----------------------

DON'T MODIFY THIS FILE

-----------------------

PERFORMER: auCDtect Task Manager, ver. 1.5.1RC4 build 1.5.1.5
Copyright (c) 2008-2010 y-soft. All rights reserved
http://y-soft.org

ANALYZER: auCDtect: CD records authenticity detector, version 0.8.2
Copyright (c) 2004 Oleg Berngardt. All rights reserved.
Copyright (c) 2004 Alexander Djourik. All rights reserved.

FILE: 08 - Giant Me On The Other Side.flac
  Size: 6280436 Hash: 924185A284E88DDB58AEB5F11DC20B53 Accuracy: -m0
  Conclusion: CDDA 58%
  Signature: E7A537C22E5F97ACDE69E193D5200E2CB40840CA
FILE: 07 - Halo.flac
  Size: 44725948 Hash: 4FBE92F969C305041F6E8D0FE12D4080 Accuracy: -m0
  Conclusion: CDDA 100%
  Signature: 721860251E5ACD151CFD3F0ABB5469AD57B3B898
FILE: 06 - Loco Tracks.flac
  Size: 35453749 Hash: 5C95326B1092B4B12A4725ABA0C51C9D Accuracy: -m0
  Conclusion: CDDA 100%
  Signature: 3937BF70AE269CC5ECA25DF2A784D09A36911463
FILE: 05 - A Speeding Car.flac
  Size: 42487715 Hash: 5DF75C3EEDC15C49DC08335B913404A7 Accuracy: -m0
  Conclusion: CDDA 100%
  Signature: 8F456BDB1D4BF2267688B716442D283CE8E49453
FILE: 04 - Mopish Morning, Halation Wiper.flac
  Size: 12310808 Hash: A302980FE2BBFAD2211EF935DCE9678B Accuracy: -m0
  Conclusion: CDDA 76%
  Signature: CF660EA86EF7F33F373FB363129756011EC93C66
FILE: 03 - Sabbath.flac
  Size: 22754225 Hash: DBF38257CA357551794AA9B08EC76662 Accuracy: -m0
  Conclusion: CDDA 100%
  Signature: FD0043BDB6315F86494D0D93C7644FA741810AA2
FILE: 02 - Com(_).flac
  Size: 104733334 Hash: D922B9C8CD016D394A3D3E2D8C4FED66 Accuracy: -m0
  Conclusion: CDDA 100%
  Signature: 603DADB96B4E7C6237B173FBB522B36AD3D62A18
FILE: 01 - Where Am I.flac
  Size: 10580081 Hash: 105FF3481C768BE90CD9501DDB35F848 Accuracy: -m0
  Conclusion: CDDA 87%
  Signature: 5903785E6405FDBE43AAC710D6F6A344C8C58A5E
Image
Продолжительность: 00:38:14

Треклист:
01. Giant Me On The Other Side (Loren Connors - Remix) (03:20)
02. Where Am I (Calla - Shootman Remix) (06:52)
03. Sabbath (Marina Rosenfeld - Unholy Sabbath Remix) (04:02)
04. Halo (DJ Olive the Audio Janitor - One Note Dub Remix) (03:48)
05. Loco Tracks (Aki Onda - Cassette Remix) (06:32)
06. Com(?) (Raz Mesinai - Earth Remix) (05:05)
07. Late City Final (Jackie-O Motherfucker - Remix) (08:31)

Код:
Exact Audio Copy V0.99 prebeta 3 from 28. July 2007

EAC extraction logfile from 11. December 2007, 12:53

Mono / New York Soundtracks

Used drive  : HL-DT-STDVDRW GWA4080M   Adapter: 0  ID: 1

Read mode               : Secure
Utilize accurate stream : Yes
Defeat audio cache      : Yes
Make use of C2 pointers : No

Read offset correction                      : 667
Overread into Lead-In and Lead-Out          : No
Fill up missing offset samples with silence : Yes
Delete leading and trailing silent blocks   : No
Null samples used in CRC calculations       : Yes
Used interface                              : Installed external ASPI interface
Gap handling                                : Appended to previous track

Used output format              : User Defined Encoder
Selected bitrate                : 128 kBit/s
Quality                         : High
Add ID3 tag                     : No
Command line compressor         : C:\Program Files\Exact Audio Copy\flac.exe
Additional command line options : -8 -A tukey(0.25) -A gauss(0.1875) -b 4096 -V -T "artist=%a" -T "title=%t" -T "album=%g" -T "date=%y" -T "tracknumber=%n" -T "genre=%m" %s --sector-align

TOC of the extracted CD

     Track |   Start  |  Length  | Start sector | End sector
    ---------------------------------------------------------
        1  |  0:00.00 |  3:20.48 |         0    |    15047
        2  |  3:20.48 |  6:52.23 |     15048    |    45970
        3  | 10:12.71 |  4:02.60 |     45971    |    64180
        4  | 14:15.56 |  3:48.65 |     64181    |    81345
        5  | 18:04.46 |  6:32.69 |     81346    |   110814
        6  | 24:37.40 |  5:05.29 |    110815    |   133718
        7  | 29:42.69 |  8:31.24 |    133719    |   172067

Track  1

     Filename C:\Documents and Settings\Administrator\Desktop\What.cd\Mono - New York Soundtracks\01 - Mono - Loren Connors 'Giant me on the other side' - remix.wav

     Pre-gap length  0:00:02.00

     Peak level 91.1 %
     Track quality 100.0 %
     Test CRC 6FD949B2
     Copy CRC 6FD949B2
     Copy OK

Track  2

     Filename C:\Documents and Settings\Administrator\Desktop\What.cd\Mono - New York Soundtracks\02 - Mono - Calla 'Where am i' - shootman remix.wav

     Peak level 81.0 %
     Track quality 100.0 %
     Test CRC A8E710BE
     Copy CRC A8E710BE
     Copy OK

Track  3

     Filename C:\Documents and Settings\Administrator\Desktop\What.cd\Mono - New York Soundtracks\03 - Mono - Marina Rosenfeld 'Sabath' - unholy sabath remix.wav

     Peak level 99.2 %
     Track quality 100.0 %
     Test CRC 1B820257
     Copy CRC 1B820257
     Copy OK

Track  4

     Filename C:\Documents and Settings\Administrator\Desktop\What.cd\Mono - New York Soundtracks\04 - Mono - DJ Olive the Audio Janitor 'Halo' - one note dub remix.wav

     Peak level 97.6 %
     Track quality 100.0 %
     Test CRC 2905ABC6
     Copy CRC 2905ABC6
     Copy OK

Track  5

     Filename C:\Documents and Settings\Administrator\Desktop\What.cd\Mono - New York Soundtracks\05 - Mono - Aki Onda 'Loco tracks' - cassette remix.wav

     Peak level 89.0 %
     Track quality 100.0 %
     Test CRC D1F4A5E7
     Copy CRC D1F4A5E7
     Copy OK

Track  6

     Filename C:\Documents and Settings\Administrator\Desktop\What.cd\Mono - New York Soundtracks\06 - Mono - Raz Mesinai 'com( )' - earth remix.wav

     Peak level 91.7 %
     Track quality 100.0 %
     Test CRC 74F5DE3E
     Copy CRC 74F5DE3E
     Copy OK

Track  7

     Filename C:\Documents and Settings\Administrator\Desktop\What.cd\Mono - New York Soundtracks\07 - Mono - Jackie-O Motherfucker 'Late city final' - remix.wav

     Peak level 99.3 %
     Track quality 100.0 %
     Test CRC E801004A
     Copy CRC E801004A
     Copy OK

No errors occurred

End of status report
Код:
-----------------------

DON'T MODIFY THIS FILE

-----------------------

PERFORMER: auCDtect Task Manager, ver. 1.5.1RC4 build 1.5.1.5
Copyright (c) 2008-2010 y-soft. All rights reserved
http://y-soft.org

ANALYZER: auCDtect: CD records authenticity detector, version 0.8.2
Copyright (c) 2004 Oleg Berngardt. All rights reserved.
Copyright (c) 2004 Alexander Djourik. All rights reserved.

FILE: 07 - Late City Final (Jackie-O Motherfucker - Remix).flac
  Size: 36866719 Hash: 30B73774E09A78439A38BD693F388D8A Accuracy: -m0
  Conclusion: CDDA 100%
  Signature: 75B9AF3133D95D41E166052CC8666FC2597289B0
FILE: 06 - Com(_) (Raz Mesinai - Earth Remix).flac
  Size: 29085666 Hash: 601EDF54641D822B63DD402771D13A3B Accuracy: -m0
  Conclusion: CDDA 100%
  Signature: FE5BC65250309F98B92C72124044B1B6FF9852ED
FILE: 05 - Loco Tracks (Aki Onda - Cassette Remix).flac
  Size: 28755987 Hash: 9975CAC81692A46CE19F1D8EC027BA8A Accuracy: -m0
  Conclusion: CDDA 100%
  Signature: C717D85F136A7D312FA567732D5D7008393FE795
FILE: 04 - Halo (DJ Olive the Audio Janitor - One Note Dub Remix).flac
  Size: 20984333 Hash: 85B3B0B9EB054CAA18DAECC012C332B1 Accuracy: -m0
  Conclusion: CDDA 85%
  Signature: 22C72F65FE518DF0FC3868ED5D6738382C1C6EDE
FILE: 03 - Sabbath (Marina Rosenfeld - Unholy Sabbath Remix).flac
  Size: 20737077 Hash: 94479B437F39DB7B018029D2DAA522EF Accuracy: -m0
  Conclusion: CDDA 100%
  Signature: F87AFBB671BE3D2DD792F862796D3A41534AFAA7
FILE: 02 - Where Am I (Calla - Shootman Remix).flac
  Size: 36956823 Hash: E950413BD0350E8C0D0F60B677F1338E Accuracy: -m0
  Conclusion: CDDA 100%
  Signature: DBB2D8071B8F23FEB70435D570BA958EA6115B72
FILE: 01 - Giant Me On The Other Side (Loren Connors - Remix).flac
  Size: 18827408 Hash: F52CF6D439C4CDBB79E111918EA802DA Accuracy: -m0
  Conclusion: CDDA 100%
  Signature: AB887523501E1A5F7DFA014FD8043E4C78A9199F
Image
Продолжительность: 00:58:28

Треклист:
01. 16.12 (10:57)
02. Mere Your Pathetique Light (06:36)
03. Halcyon (Beautiful Days) (08:09)
04. 2 Candles, 1 Wish (02:47)
05. Ode (07:06)
06. The Sky Remains The Same As Ever (02:27)
07. Lost Snow (15:12)
08. A Thousand Paper Cranes (05:11)

Код:
X Lossless Decoder version 20090320 (105.1)

XLD extraction logfile from 2009-05-05 17:57:50 +0100

MONO / Walking Cloud and Deep Red Sky, Flag Fluttered and The Sun Shined

Used drive : FREECOM_ DVD+/-RW20J6 (revision 9F51)

Use cdparanoia mode     : YES (CDParanoia III 10.2 engine)
Disable audio cache     : OK for the drive with cache less than 2750KB
Make use of C2 pointers : NO
Read offset correction  : 6
Max retry count         : 100

TOC of the extracted CD
     Track |   Start  |  Length  | Start sector | End sector
    ---------------------------------------------------------
        1  | 00:00:00 | 10:57:48 |         0    |    49322
        2  | 10:57:48 | 06:36:02 |     49323    |    79024
        3  | 17:33:50 | 08:09:38 |     79025    |   115737
        4  | 25:43:13 | 02:47:52 |    115738    |   128314
        5  | 28:30:65 | 07:06:52 |    128315    |   160316
        6  | 35:37:42 | 02:27:44 |    160317    |   171385
        7  | 38:05:11 | 15:12:20 |    171386    |   239805
        8  | 53:17:31 | 05:11:16 |    239806    |   263146

List of alternate offset correction values
        #  | Absolute | Relative | Confidence
    ------------------------------------------
        1  |    682   |    676   |     13
        2  |     90   |     84   |     10

Track 01
    Filename : /Users/***/Music/Ripping/01. 16.12.flac

    CRC32 hash (test run)  : C645D121
    CRC32 hash             : C645D121
    CRC32 hash (skip zero) : EEF386D7
    AccurateRip signature  : 90386F50
        ->Accurately ripped! (confidence 8)
    Statistics
        Read error                           : 0
        Skipped (treated as error)           : 0
        Edge jitter error (maybe fixed)      : 0
        Atom jitter error (maybe fixed)      : 0
        Drift error (maybe fixed)            : 0
        Dropped bytes error (maybe fixed)    : 0
        Duplicated bytes error (maybe fixed) : 0
        Inconsistency in error sectors       : 0

Track 02
    Filename : /Users/***/Music/Ripping/02. Mere Your Pathetique Light.flac

    CRC32 hash (test run)  : E7151993
    CRC32 hash             : E7151993
    CRC32 hash (skip zero) : 62EE2DEB
    AccurateRip signature  : C671D1EB
        ->Accurately ripped! (confidence 8)
    Statistics
        Read error                           : 0
        Skipped (treated as error)           : 0
        Edge jitter error (maybe fixed)      : 0
        Atom jitter error (maybe fixed)      : 0
        Drift error (maybe fixed)            : 0
        Dropped bytes error (maybe fixed)    : 0
        Duplicated bytes error (maybe fixed) : 0
        Inconsistency in error sectors       : 0

Track 03
    Filename : /Users/***/Music/Ripping/03. Halcyon (Beautiful Days).flac

    CRC32 hash (test run)  : 6FC51941
    CRC32 hash             : 6FC51941
    CRC32 hash (skip zero) : EF841AE4
    AccurateRip signature  : 35AD9024
        ->Accurately ripped! (confidence 8)
    Statistics
        Read error                           : 0
        Skipped (treated as error)           : 0
        Edge jitter error (maybe fixed)      : 0
        Atom jitter error (maybe fixed)      : 0
        Drift error (maybe fixed)            : 0
        Dropped bytes error (maybe fixed)    : 0
        Duplicated bytes error (maybe fixed) : 0
        Inconsistency in error sectors       : 0

Track 04
    Filename : /Users/***/Music/Ripping/04. 2 Candles, 1 Wish.flac

    CRC32 hash (test run)  : 6FCE2363
    CRC32 hash             : 6FCE2363
    CRC32 hash (skip zero) : E23DE895
    AccurateRip signature  : 7709AF68
        ->Accurately ripped! (confidence 8)
    Statistics
        Read error                           : 0
        Skipped (treated as error)           : 0
        Edge jitter error (maybe fixed)      : 0
        Atom jitter error (maybe fixed)      : 0
        Drift error (maybe fixed)            : 0
        Dropped bytes error (maybe fixed)    : 0
        Duplicated bytes error (maybe fixed) : 0
        Inconsistency in error sectors       : 0

Track 05
    Filename : /Users/***/Music/Ripping/05. Ode.flac

    CRC32 hash (test run)  : 8E0919D6
    CRC32 hash             : 8E0919D6
    CRC32 hash (skip zero) : 9CB3480B
    AccurateRip signature  : 83347FA9
        ->Accurately ripped! (confidence 8)
    Statistics
        Read error                           : 0
        Skipped (treated as error)           : 0
        Edge jitter error (maybe fixed)      : 0
        Atom jitter error (maybe fixed)      : 0
        Drift error (maybe fixed)            : 0
        Dropped bytes error (maybe fixed)    : 0
        Duplicated bytes error (maybe fixed) : 0
        Inconsistency in error sectors       : 0

Track 06
    Filename : /Users/***/Music/Ripping/06. The Sky Remains The Same As Ever.flac

    CRC32 hash (test run)  : 618E35DD
    CRC32 hash             : 618E35DD
    CRC32 hash (skip zero) : 2D7B9309
    AccurateRip signature  : 9A6A75A7
        ->Accurately ripped! (confidence 8)
    Statistics
        Read error                           : 0
        Skipped (treated as error)           : 0
        Edge jitter error (maybe fixed)      : 0
        Atom jitter error (maybe fixed)      : 0
        Drift error (maybe fixed)            : 0
        Dropped bytes error (maybe fixed)    : 0
        Duplicated bytes error (maybe fixed) : 0
        Inconsistency in error sectors       : 0

Track 07
    Filename : /Users/***/Music/Ripping/07. Lost Snow.flac

    CRC32 hash (test run)  : F3AE7806
    CRC32 hash             : F3AE7806
    CRC32 hash (skip zero) : 876F83F3
    AccurateRip signature  : 06F76C84
        ->Accurately ripped! (confidence 8)
    Statistics
        Read error                           : 0
        Skipped (treated as error)           : 0
        Edge jitter error (maybe fixed)      : 0
        Atom jitter error (maybe fixed)      : 0
        Drift error (maybe fixed)            : 0
        Dropped bytes error (maybe fixed)    : 0
        Duplicated bytes error (maybe fixed) : 0
        Inconsistency in error sectors       : 0

Track 08
    Filename : /Users/***/Music/Ripping/08. A Thousand Paper Cranes.flac

    CRC32 hash (test run)  : B89F19D4
    CRC32 hash             : B89F19D4
    CRC32 hash (skip zero) : 57205233
    AccurateRip signature  : 91F77EC7
        ->Accurately ripped! (confidence 8)
    Statistics
        Read error                           : 0
        Skipped (treated as error)           : 0
        Edge jitter error (maybe fixed)      : 0
        Atom jitter error (maybe fixed)      : 0
        Drift error (maybe fixed)            : 0
        Dropped bytes error (maybe fixed)    : 0
        Duplicated bytes error (maybe fixed) : 0
        Inconsistency in error sectors       : 0

No errors occurred

End of status report
Код:
-----------------------

DON'T MODIFY THIS FILE

-----------------------

PERFORMER: auCDtect Task Manager, ver. 1.5.1RC4 build 1.5.1.5
Copyright (c) 2008-2010 y-soft. All rights reserved
http://y-soft.org

ANALYZER: auCDtect: CD records authenticity detector, version 0.8.2
Copyright (c) 2004 Oleg Berngardt. All rights reserved.
Copyright (c) 2004 Alexander Djourik. All rights reserved.

FILE: 08 - A Thousand Paper Cranes.flac
  Size: 22153464 Hash: A6D96EBAE5134EB262A3615D966C96D4 Accuracy: -m0
  Conclusion: CDDA 100%
  Signature: D7E9E6D13C7102EDEF0A1696AE215C59B8D082DF
FILE: 07 - Lost Snow.flac
  Size: 85528135 Hash: 1A78FC6BC8130D4DBAA5FC023081DF55 Accuracy: -m0
  Conclusion: CDDA 100%
  Signature: 17AEA9CDE911A84C08968299767C0D1E33D5911E
FILE: 06 - The Sky Remains The Same As Ever.flac
  Size: 10468117 Hash: 59C9A1AE401CB010F681DE8F2B03340A Accuracy: -m0
  Conclusion: CDDA 100%
  Signature: 4923EF16C4366A1342718B259DD08BDDDEB69A2B
FILE: 05 - Ode.flac
  Size: 34329794 Hash: 279C9DE8C0A3F44C60DA4EB072C523FE Accuracy: -m0
  Conclusion: CDDA 100%
  Signature: 4C167215533294EF1B0B0FB302A077B8FEEF50BD
FILE: 04 - 2 Candles, 1 Wish.flac
  Size: 12800155 Hash: B0F460A8CC65B98D86D4501892A2F5B2 Accuracy: -m0
  Conclusion: CDDA 100%
  Signature: 9486AB588AB190C975E87FA5165CA2E15A362699
FILE: 03 - Halcyon (Beautiful Days).flac
  Size: 47828266 Hash: B52E0F412CCB97F5D698B0A84599B32D Accuracy: -m0
  Conclusion: CDDA 100%
  Signature: DA6E0A1A8CAF4F0B939EC4104F88C52B82D3868E
FILE: 02 - Mere Your Pathetique Light.flac
  Size: 34641848 Hash: 31B7571C1ECEE7BF87041782BF67A5A7 Accuracy: -m0
  Conclusion: CDDA 100%
  Signature: 47DB4CA59F0BD877BD3F544ADB3443BAF4600EC3
FILE: 01 - 16.12.flac
  Size: 59923181 Hash: 95428EEDD24561F843AA8F08CC318ABF Accuracy: -m0
  Conclusion: CDDA 100%
  Signature: 5A963BEDD591D7C763355ED00E7F6F6B98E80F74
Image
Продолжительность: 01:14:09

Треклист:
01. Part One (12:15)
02. Part Two (13:36)
03. Part Three (17:03)
04. Part Four (11:59)
05. Part Five (19:13)

Код:
EAC extraction logfile from 17. October 2007, 23:38 for CD
Mono & World's End Girlfriend / Palmless Prayer/Mass Murder Refrain

Used drive  : HL-DT-STDVD-RAM GSA-H54N   Adapter: 1  ID: 0
Read mode   : Secure with NO C2, accurate stream, disable cache
Read offset correction : 102
Overread into Lead-In and Lead-Out : No

Used output format : C:\Program Files\flac-1.1.4-win\bin\flac.exe   (User Defined Encoder)
                     192 kBit/s
                     Additional command line options : -8 -A tukey(0.25) -A gauss(0.1875) -b 4096 -V -T "artist=%a" -T "title=%t" -T "album=%g" -T "date=%y" -T "tracknumber=%n" -T "genre=%m" %s --sector-align

Other options      :
    Fill up missing offset samples with silence : Yes
    Delete leading and trailing silent blocks : No
    Installed external ASPI interface

Track  1
     Filename C:\Documents and Settings\Ken\My Documents\My Music\My Rips\Mono & World's End Girlfriend - Palmless Prayer Mass Murder Refrain (2006) [FLAC]\01 - Mono & World's End Girlfriend - Palmless Prayer,Mass Murder Refrain - 1.wav

     Pre-gap length  0:00:02.00

     Peak level 99.0 %
     Track quality 99.9 %
     Test CRC BF3E7246
     Copy CRC BF3E7246
     Copy OK

Track  2
     Filename C:\Documents and Settings\Ken\My Documents\My Music\My Rips\Mono & World's End Girlfriend - Palmless Prayer Mass Murder Refrain (2006) [FLAC]\02 - Mono & World's End Girlfriend - Palmless Prayer,Mass Murder Refrain - 2.wav

     Peak level 99.0 %
     Track quality 100.0 %
     Test CRC 9EB7E1CC
     Copy CRC 9EB7E1CC
     Copy OK

Track  3
     Filename C:\Documents and Settings\Ken\My Documents\My Music\My Rips\Mono & World's End Girlfriend - Palmless Prayer Mass Murder Refrain (2006) [FLAC]\03 - Mono & World's End Girlfriend - Palmless Prayer,Mass Murder Refrain - 3.wav

     Peak level 99.7 %
     Track quality 100.0 %
     Test CRC 603663B7
     Copy CRC 603663B7
     Copy OK

Track  4
     Filename C:\Documents and Settings\Ken\My Documents\My Music\My Rips\Mono & World's End Girlfriend - Palmless Prayer Mass Murder Refrain (2006) [FLAC]\04 - Mono & World's End Girlfriend - Palmless Prayer,Mass Murder Refrain - 4.wav

     Peak level 99.0 %
     Track quality 100.0 %
     Test CRC B0236863
     Copy CRC B0236863
     Copy OK

Track  5
     Filename C:\Documents and Settings\Ken\My Documents\My Music\My Rips\Mono & World's End Girlfriend - Palmless Prayer Mass Murder Refrain (2006) [FLAC]\05 - Mono & World's End Girlfriend - Palmless Prayer,Mass Murder Refrain - 5.wav

     Peak level 99.6 %
     Track quality 99.9 %
     Test CRC 2CCB1EC1
     Copy CRC 2CCB1EC1
     Copy OK

No errors occured

End of status report
Код:
-----------------------

DON'T MODIFY THIS FILE

-----------------------

PERFORMER: auCDtect Task Manager, ver. 1.5.1RC4 build 1.5.1.5
Copyright (c) 2008-2010 y-soft. All rights reserved
http://y-soft.org

ANALYZER: auCDtect: CD records authenticity detector, version 0.8.2
Copyright (c) 2004 Oleg Berngardt. All rights reserved.
Copyright (c) 2004 Alexander Djourik. All rights reserved.

FILE: 05 - Part Five.flac
  Size: 99797259 Hash: FD267306EE95D6672E91399813D7E294 Accuracy: -m0
  Conclusion: CDDA 100%
  Signature: 2D164B5099BCBDD4A3EFC473007480ACC8BC59D1
FILE: 04 - Part Four.flac
  Size: 50636319 Hash: 340CF2056689ECE65B0E6B9980F90023 Accuracy: -m0
  Conclusion: CDDA 100%
  Signature: 04F8EE15DB2A467258DFE1182725D81F167E4666
FILE: 03 - Part Three.flac
  Size: 83504683 Hash: F172AED90ACE2F88864131DB915EE56A Accuracy: -m0
  Conclusion: CDDA 100%
  Signature: 979B4CCD009576E920A98297793A10B5D0D5A987
FILE: 02 - Part Two.flac
  Size: 64771198 Hash: 98504F2C05A6F0FDEA9CBCAFDDF93FF1 Accuracy: -m0
  Conclusion: CDDA 100%
  Signature: 41CFF117FD2C116728B519F41C468ECABC91FB0D
FILE: 01 - Part One.flac
  Size: 60056388 Hash: 42EB7EDDCAB38BC3AAC43A4CA6E0C33C Accuracy: -m0
  Conclusion: CDDA 100%
  Signature: CE2791D583BDE48DDF4239FA05CFA31330836C20
Image
Продолжительность: 01:00:01

Треклист:
01. The Flames Beyond the Cold Mountain (13:29)
02. A Heart Has Asked for the Pleasure (03:43)
03. Yearning (15:38)
04. Are You There? (10:25)
05. The Remains of the Day (03:41)
06. Moonlight (13:04)

Код:
Exact Audio Copy V0.99 prebeta 4 from 23. January 2008

EAC extraction logfile from 18. November 2009, 0:53

Mono / You Are There

Used drive  : Optiarc DVD RW AD-7200S   Adapter: 0  ID: 1

Read mode               : Secure
Utilize accurate stream : Yes
Defeat audio cache      : Yes
Make use of C2 pointers : No

Read offset correction                      : 48
Overread into Lead-In and Lead-Out          : No
Fill up missing offset samples with silence : Yes
Delete leading and trailing silent blocks   : No
Null samples used in CRC calculations       : Yes
Used interface                              : Native Win32 interface for Win NT & 2000
Gap handling                                : Appended to previous track

Used output format              : User Defined Encoder
Selected bitrate                : 1024 kBit/s
Quality                         : High
Add ID3 tag                     : Yes
Command line compressor         : C:\Program Files\Exact Audio Copy\FLAC\FLAC.EXE
Additional command line options : -V -8 -T "artist=%a" -T "title=%t" -T "album=%g" -T "date=%y" -T "tracknumber=%n" -T "genre=%m" %s

TOC of the extracted CD

     Track |   Start  |  Length  | Start sector | End sector
    ---------------------------------------------------------
        1  |  0:00.00 | 13:29.28 |         0    |    60702
        2  | 13:29.28 |  3:43.16 |     60703    |    77443
        3  | 17:12.44 | 15:38.07 |     77444    |   147800
        4  | 32:50.51 | 10:25.10 |    147801    |   194685
        5  | 43:15.61 |  3:41.03 |    194686    |   211263
        6  | 46:56.64 | 13:04.40 |    211264    |   270103

Track  1

     Filename E:\Music.flac\Mono\2006 - You Are There\01 - The Flames Beyond the Cold Mountain.wav

     Pre-gap length  0:00:02.00

     Peak level 98.8 %
     Track quality 100.0 %
     Test CRC 2D7F3715
     Copy CRC 2D7F3715
     Accurately ripped (confidence 3)  [24D81307]
     Copy OK

Track  2

     Filename E:\Music.flac\Mono\2006 - You Are There\02 - A Heart Has Asked for the Pleasure.wav

     Peak level 71.2 %
     Track quality 100.0 %
     Test CRC 7E7D5893
     Copy CRC 7E7D5893
     Accurately ripped (confidence 3)  [862BB3D9]
     Copy OK

Track  3

     Filename E:\Music.flac\Mono\2006 - You Are There\03 - Yearning.wav

     Peak level 98.8 %
     Track quality 99.9 %
     Test CRC D31E5E3D
     Copy CRC D31E5E3D
     Accurately ripped (confidence 3)  [A5192B7E]
     Copy OK

Track  4

     Filename E:\Music.flac\Mono\2006 - You Are There\04 - Are You There .wav

     Peak level 98.8 %
     Track quality 100.0 %
     Test CRC CAE58FA6
     Copy CRC CAE58FA6
     Accurately ripped (confidence 3)  [7FF4E564]
     Copy OK

Track  5

     Filename E:\Music.flac\Mono\2006 - You Are There\05 - The Remains of the Day.wav

     Peak level 50.6 %
     Track quality 100.0 %
     Test CRC F6F058C1
     Copy CRC F6F058C1
     Accurately ripped (confidence 3)  [9C9A6068]
     Copy OK

Track  6

     Filename E:\Music.flac\Mono\2006 - You Are There\06 - Moonlight.wav

     Peak level 98.8 %
     Track quality 100.0 %
     Test CRC 04059A22
     Copy CRC 04059A22
     Accurately ripped (confidence 3)  [98271ABF]
     Copy OK

All tracks accurately ripped

No errors occurred

End of status report
Код:
-----------------------

DON'T MODIFY THIS FILE

-----------------------

PERFORMER: auCDtect Task Manager, ver. 1.5.1RC4 build 1.5.1.5
Copyright (c) 2008-2010 y-soft. All rights reserved
http://y-soft.org

ANALYZER: auCDtect: CD records authenticity detector, version 0.8.2
Copyright (c) 2004 Oleg Berngardt. All rights reserved.
Copyright (c) 2004 Alexander Djourik. All rights reserved.

FILE: 06 - Moonlight.flac
  Size: 81100220 Hash: 23C0897865609FD406CEF48EF25F8E18 Accuracy: -m0
  Conclusion: CDDA 100%
  Signature: 0C08B81A8A60686FF78948D93A1A5F45DC8FEF8B
FILE: 05 - The Remains of the Day.flac
  Size: 17070413 Hash: 4BC7BB98E5D867FFD842E6635422A6C2 Accuracy: -m0
  Conclusion: CDDA 100%
  Signature: 46EC3E19DB93270965EB110905B51DE0DE0C65E7
FILE: 04 - Are You There.flac
  Size: 55146641 Hash: F9ACE715FBF2B58F0AA8CDD6ED74BA9B Accuracy: -m0
  Conclusion: CDDA 100%
  Signature: 81AB9F89E48A8E69E1923C30CAF069EF728158C2
FILE: 03 - Yearning.flac
  Size: 93662063 Hash: 476F2C6B602C8EAB0D2B880A27ED7B15 Accuracy: -m0
  Conclusion: CDDA 100%
  Signature: F831FFF7C30F3477CBF702CC130ACA72435B1EAA
FILE: 02 - A Heart Has Asked for the Pleasure.flac
  Size: 16396133 Hash: 753A688A4A6E680C28C19C1395C6BB55 Accuracy: -m0
  Conclusion: CDDA 100%
  Signature: 421AA069F739964447076E75B3EFECC792467113
FILE: 01 - The Flames Beyond the Cold Mountain.flac
  Size: 80061658 Hash: DC3368B06AB5FE316FAC8A43B4AA3A82 Accuracy: -m0
  Conclusion: CDDA 100%
  Signature: 37E9FF39D5D090CE32C82AFED5F92B9D0AF36854
Image
Продолжительность: 01:16:41

Треклист:
01. Finlandia (08:07)
02. Black Woods (11:22)
03. Yearning (15:37)
04. Memorie Dal Futuro (09:38)
05. Due Foglie, Una Candela : Il Soffio Del Vento (03:47)
06. Since I've Been Waiting For You (02:51)
07. Gone (04:07)
08. Black Rain (09:17)
09. Rainbow (02:23)
10. Little Boy (1945 - Future) (09:28)

Код:
Exact Audio Copy V0.99 prebeta 4 from 23. January 2008

EAC extraction logfile from 15. September 2008, 0:08

Mono / Gone: A Collection of EPs 2000-2007

Used drive  : HL-DT-STCDRW/DVD GCC4482   Adapter: 0  ID: 0

Read mode               : Secure
Utilize accurate stream : Yes
Defeat audio cache      : No
Make use of C2 pointers : No

Read offset correction                      : 6
Overread into Lead-In and Lead-Out          : No
Fill up missing offset samples with silence : Yes
Delete leading and trailing silent blocks   : No
Null samples used in CRC calculations       : Yes
Used interface                              : Native Win32 interface for Win NT & 2000
Gap handling                                : Appended to previous track

Used output format              : User Defined Encoder
Selected bitrate                : 768 kBit/s
Quality                         : High
Add ID3 tag                     : No
Command line compressor         : C:\Program Files\Exact Audio Copy\FLAC\FLAC.EXE
Additional command line options : -V -8 -T "artist=%a" -T "title=%t" -T "album=%g" -T "date=%y" -T "tracknumber=%n" -T "genre=%m" %s

TOC of the extracted CD

     Track |   Start  |  Length  | Start sector | End sector
    ---------------------------------------------------------
        1  |  0:00.00 |  8:07.65 |         0    |    36589
        2  |  8:07.65 | 11:22.36 |     36590    |    87775
        3  | 19:30.26 | 15:37.44 |     87776    |   158094
        4  | 35:07.70 |  9:38.15 |    158095    |   201459
        5  | 44:46.10 |  3:47.71 |    201460    |   218555
        6  | 48:34.06 |  2:51.03 |    218556    |   231383
        7  | 51:25.09 |  4:07.16 |    231384    |   249924
        8  | 55:32.25 |  9:17.32 |    249925    |   291731
        9  | 64:49.57 |  2:23.16 |    291732    |   302472
       10  | 67:12.73 |  9:28.73 |    302473    |   345145

Track  1

     Filename C:\EACrips\Mono - 2007 - Gone- A Collection of EPs 2000-2007\01 - Finlandia.wav

     Pre-gap length  0:00:02.00

     Peak level 99.5 %
     Track quality 100.0 %
     Test CRC 8422ED3B
     Copy CRC 8422ED3B
     Accurately ripped (confidence 9)  [3CB4CC97]
     Copy OK

Track  2

     Filename C:\EACrips\Mono - 2007 - Gone- A Collection of EPs 2000-2007\02 - Black Woods.wav

     Peak level 99.5 %
     Track quality 100.0 %
     Test CRC 7F0DEBC9
     Copy CRC 7F0DEBC9
     Accurately ripped (confidence 9)  [A4F9AD1B]
     Copy OK

Track  3

     Filename C:\EACrips\Mono - 2007 - Gone- A Collection of EPs 2000-2007\03 - Yearning.wav

     Peak level 99.5 %
     Track quality 100.0 %
     Test CRC BC221698
     Copy CRC BC221698
     Accurately ripped (confidence 9)  [58BA076E]
     Copy OK

Track  4

     Filename C:\EACrips\Mono - 2007 - Gone- A Collection of EPs 2000-2007\04 - Memorie Dal Futuro.wav

     Peak level 99.5 %
     Track quality 100.0 %
     Test CRC 7156EC60
     Copy CRC 7156EC60
     Accurately ripped (confidence 9)  [D2AEE58B]
     Copy OK

Track  5

     Filename C:\EACrips\Mono - 2007 - Gone- A Collection of EPs 2000-2007\05 - Due Foglie, Una Candela - Il Soffio Del Vento.wav

     Peak level 99.5 %
     Track quality 100.0 %
     Test CRC A87607F2
     Copy CRC A87607F2
     Accurately ripped (confidence 9)  [38FD748C]
     Copy OK

Track  6

     Filename C:\EACrips\Mono - 2007 - Gone- A Collection of EPs 2000-2007\06 - Since I've Been Waiting For You.wav

     Peak level 99.4 %
     Track quality 100.0 %
     Test CRC 9D75FBDF
     Copy CRC 9D75FBDF
     Accurately ripped (confidence 9)  [6DEFB0BF]
     Copy OK

Track  7

     Filename C:\EACrips\Mono - 2007 - Gone- A Collection of EPs 2000-2007\07 - Gone.wav

     Peak level 99.5 %
     Track quality 100.0 %
     Test CRC 64D205A3
     Copy CRC 64D205A3
     Accurately ripped (confidence 9)  [70C33E39]
     Copy OK

Track  8

     Filename C:\EACrips\Mono - 2007 - Gone- A Collection of EPs 2000-2007\08 - Black Rain.wav

     Peak level 99.5 %
     Track quality 100.0 %
     Test CRC E55B18B7
     Copy CRC E55B18B7
     Accurately ripped (confidence 9)  [6579956C]
     Copy OK

Track  9

     Filename C:\EACrips\Mono - 2007 - Gone- A Collection of EPs 2000-2007\09 - Rainbow.wav

     Peak level 67.0 %
     Track quality 100.0 %
     Test CRC 593F8DF0
     Copy CRC 593F8DF0
     Accurately ripped (confidence 9)  [27E6C2A3]
     Copy OK

Track 10

     Filename C:\EACrips\Mono - 2007 - Gone- A Collection of EPs 2000-2007\10 - Little Boy (1945_Future).wav

     Peak level 99.5 %
     Track quality 100.0 %
     Test CRC 7181F943
     Copy CRC 7181F943
     Accurately ripped (confidence 9)  [3A90A6BE]
     Copy OK

All tracks accurately ripped

No errors occurred

End of status report
Код:
-----------------------

DON'T MODIFY THIS FILE

-----------------------

PERFORMER: auCDtect Task Manager, ver. 1.5.1RC4 build 1.5.1.5
Copyright (c) 2008-2010 y-soft. All rights reserved
http://y-soft.org

ANALYZER: auCDtect: CD records authenticity detector, version 0.8.2
Copyright (c) 2004 Oleg Berngardt. All rights reserved.
Copyright (c) 2004 Alexander Djourik. All rights reserved.

FILE: 10 - Little Boy (1945 - Future).flac
  Size: 55379226 Hash: 3BBC11A6487246F1810C4656B163D579 Accuracy: -m0
  Conclusion: CDDA 100%
  Signature: 8C29F88F1387804D616C52F234ED521382DBBBAB
FILE: 09 - Rainbow.flac
  Size: 13423845 Hash: 222C07346523ECBD1C1013575AE5FEAF Accuracy: -m0
  Conclusion: CDDA 100%
  Signature: 7C8922B598EAEED3F3E1506C4F43F018313D51A6
FILE: 08 - Black Rain.flac
  Size: 50748962 Hash: A2FE5F2853DEC204D53ADD19BDD33A15 Accuracy: -m0
  Conclusion: CDDA 99%
  Signature: A90FCF7F4FFAE18707639BCA3725C2559D46B07A
FILE: 07 - Gone.flac
  Size: 24446446 Hash: FE607510B099BF25219F29FB01CFB77F Accuracy: -m0
  Conclusion: CDDA 99%
  Signature: CC9D77C8FCB27E177BB5643BD20D818C0E44CBA4
FILE: 06 - Since I've Been Waiting For You.flac
  Size: 14228191 Hash: F1BFCF8B4053B33F91F4F087CE1C04BC Accuracy: -m0
  Conclusion: CDDA 100%
  Signature: 56F4AAD27C2B6E0BA2715E448DB7AAA1C81EA093
FILE: 05 - Due Foglie, Una Candela  Il Soffio Del Vento.flac
  Size: 16822411 Hash: 46E45920E2F6BFDBFD52880981C1C7ED Accuracy: -m0
  Conclusion: CDDA 100%
  Signature: 5964E425BB6884AF22181124FCE4B9A37A107AE9
FILE: 04 - Memorie Dal Futuro.flac
  Size: 58415120 Hash: 92E2E0274A0EB394F3E08FDC8F5BC0BF Accuracy: -m0
  Conclusion: CDDA 100%
  Signature: 67E17494755C460D8BD9BF7AA345E4F65A84EFE6
FILE: 03 - Yearning.flac
  Size: 93548057 Hash: 7591CD800F810EC86F55C55FC6D77E77 Accuracy: -m0
  Conclusion: CDDA 100%
  Signature: A936F3538017F36AF6E99E08DC1383DE47ADBDAB
FILE: 02 - Black Woods.flac
  Size: 80597518 Hash: 5BC204B7A263E68F0E151CDE59D063BC Accuracy: -m0
  Conclusion: CDDA 100%
  Signature: 73B54D93DF59D456564B3CE5F6ACD340EEF41A7D
FILE: 01 - Finlandia.flac
  Size: 41683749 Hash: 83B3B25F4ED7D89D66181B759CB9A81B Accuracy: -m0
  Conclusion: CDDA 100%
  Signature: 8C2AC5D1BE6E4C3714F254877778A9AC0DC55A10
Image
Продолжительность: 01:07:00

Треклист:
01. Ashes in the Snow (11:45)
02. Burial at Sea (10:38)
03. Silent Flight, Sleeping Dawn (06:00)
04. Pure as Snow (Trails of the Winter Storm) (11:25)
05. Follow the Map (03:55)
06. The Battle to Heaven (12:51)
07. Everlasting Light (10:23)

Код:
Exact Audio Copy V0.99 prebeta 4 from 23. January 2008

EAC extraction logfile from 17. November 2009, 20:39

Mono / Hymn to the Immortal Wind

Used drive  : Optiarc DVD RW AD-7200S   Adapter: 0  ID: 1

Read mode               : Secure
Utilize accurate stream : Yes
Defeat audio cache      : Yes
Make use of C2 pointers : No

Read offset correction                      : 48
Overread into Lead-In and Lead-Out          : No
Fill up missing offset samples with silence : Yes
Delete leading and trailing silent blocks   : No
Null samples used in CRC calculations       : Yes
Used interface                              : Native Win32 interface for Win NT & 2000
Gap handling                                : Appended to previous track

Used output format              : User Defined Encoder
Selected bitrate                : 1024 kBit/s
Quality                         : High
Add ID3 tag                     : Yes
Command line compressor         : C:\Program Files\Exact Audio Copy\FLAC\FLAC.EXE
Additional command line options : -V -8 -T "artist=%a" -T "title=%t" -T "album=%g" -T "date=%y" -T "tracknumber=%n" -T "genre=%m" %s

TOC of the extracted CD

     Track |   Start  |  Length  | Start sector | End sector
    ---------------------------------------------------------
        1  |  0:00.00 | 11:45.63 |         0    |    52937
        2  | 11:45.63 | 10:38.56 |     52938    |   100843
        3  | 22:24.44 |  6:00.04 |    100844    |   127847
        4  | 28:24.48 | 11:25.46 |    127848    |   179268
        5  | 39:50.19 |  3:55.56 |    179269    |   196949
        6  | 43:46.00 | 12:51.09 |    196950    |   254783
        7  | 56:37.09 | 10:23.05 |    254784    |   301513

Track  1

     Filename E:\Music.flac\Mono\2009 - Hymn to the Immortal Wind\01 - Ashes in the Snow.wav

     Pre-gap length  0:00:02.00

     Peak level 98.8 %
     Track quality 100.0 %
     Test CRC 93A03F8B
     Copy CRC 93A03F8B
     Cannot be verified as accurate (confidence 31)  [0F5918BA], AccurateRip returned [C33D2EAA]
     Copy OK

Track  2

     Filename E:\Music.flac\Mono\2009 - Hymn to the Immortal Wind\02 - Burial at Sea.wav

     Peak level 98.8 %
     Track quality 100.0 %
     Test CRC BEAF1904
     Copy CRC BEAF1904
     Cannot be verified as accurate (confidence 31)  [B81E7225], AccurateRip returned [91ABF96D]
     Copy OK

Track  3

     Filename E:\Music.flac\Mono\2009 - Hymn to the Immortal Wind\03 - Silent Flight, Sleeping Dawn.wav

     Peak level 90.3 %
     Track quality 100.0 %
     Test CRC 08927207
     Copy CRC 08927207
     Cannot be verified as accurate (confidence 31)  [660BAEF6], AccurateRip returned [504572E2]
     Copy OK

Track  4

     Filename E:\Music.flac\Mono\2009 - Hymn to the Immortal Wind\04 - Pure as Snow (Trails of the Winter Storm).wav

     Peak level 98.8 %
     Track quality 100.0 %
     Test CRC 13E6D60D
     Copy CRC 13E6D60D
     Cannot be verified as accurate (confidence 31)  [FD45E060], AccurateRip returned [10B8D9C6]
     Copy OK

Track  5

     Filename E:\Music.flac\Mono\2009 - Hymn to the Immortal Wind\05 - Follow the Map.wav

     Peak level 91.5 %
     Track quality 99.9 %
     Test CRC 327AD85A
     Copy CRC 327AD85A
     Cannot be verified as accurate (confidence 32)  [40014F2B], AccurateRip returned [6A816768]
     Copy OK

Track  6

     Filename E:\Music.flac\Mono\2009 - Hymn to the Immortal Wind\06 - The Battle to Heaven.wav

     Peak level 98.8 %
     Track quality 100.0 %
     Test CRC 487B7E1F
     Copy CRC 487B7E1F
     Cannot be verified as accurate (confidence 31)  [46EBCBDD], AccurateRip returned [D52C5E39]
     Copy OK

Track  7

     Filename E:\Music.flac\Mono\2009 - Hymn to the Immortal Wind\07 - Everlasting Light.wav

     Peak level 98.8 %
     Track quality 100.0 %
     Test CRC 99681A6D
     Copy CRC 99681A6D
     Cannot be verified as accurate (confidence 31)  [C041AABC], AccurateRip returned [A84FDCBA]
     Copy OK

No tracks could be verified as accurate
You may have a different pressing from the one(s) in the database

No errors occurred

End of status report
Код:
-----------------------

DON'T MODIFY THIS FILE

-----------------------

PERFORMER: auCDtect Task Manager, ver. 1.5.1RC4 build 1.5.1.5
Copyright (c) 2008-2010 y-soft. All rights reserved
http://y-soft.org

ANALYZER: auCDtect: CD records authenticity detector, version 0.8.2
Copyright (c) 2004 Oleg Berngardt. All rights reserved.
Copyright (c) 2004 Alexander Djourik. All rights reserved.

FILE: 07 - Everlasting Light.flac
  Size: 63562781 Hash: CC3ADE777497C380C5C9807C44D8B6E8 Accuracy: -m0
  Conclusion: CDDA 99%
  Signature: EC99AA527441CBDFC65A6B6DF5B2D434772AA8E7
FILE: 06 - The Battle to Heaven.flac
  Size: 83500744 Hash: 1172C261D8347DCC4EC0A82F347304C9 Accuracy: -m0
  Conclusion: CDDA 100%
  Signature: 9F0FC5A245111D72558BA1F5C8410035CC23F7AD
FILE: 05 - Follow the Map.flac
  Size: 20292616 Hash: 75B19468836447E7B51D8D8746DCC0E5 Accuracy: -m0
  Conclusion: CDDA 100%
  Signature: EA7F7B12BB441BEF13F861C6E0AB53FAF719F0CB
FILE: 04 - Pure as Snow (Trails of the Winter Storm).flac
  Size: 72979225 Hash: 09E4D82B2C26316CB063E0BF58347162 Accuracy: -m0
  Conclusion: CDDA 100%
  Signature: 9B5AEE48A9E449F5DB30DFCC82AA3884FB56290D
FILE: 03 - Silent Flight, Sleeping Dawn.flac
  Size: 32575561 Hash: 696DF0229F6862964165338C80EB196E Accuracy: -m0
  Conclusion: CDDA 100%
  Signature: 1F54CD4D9A16F1E5574AC013C4A4EF1075B4FEBA
FILE: 02 - Burial at Sea.flac
  Size: 61216779 Hash: E4F96C49A1C7781D7437F37FEC830779 Accuracy: -m0
  Conclusion: CDDA 100%
  Signature: 62D688A00AE504AD10BABCB1AC6FF97D41367E4F
FILE: 01 - Ashes in the Snow.flac
  Size: 73151713 Hash: F979698952C13FEB3A38DA5C6B6C8A1C Accuracy: -m0
  Conclusion: CDDA 100%
  Signature: 6FBC651C458D7C943D09A25F3D26266D98E6961F
Image
Продолжительность: 01:19:07

Треклист:
01. Ashes In The Snow (12:55)
02. Burial At Sea (10:23)
03. Silent Flight, Sleeping Dawn (05:50)
04. Are You There? (10:30)
05. 2 Candles, 1 Wish (02:53)
06. Where Am I (03:03)
07. Pure As Snow (11:37)
08. Halcyon (Beautiful Days) (09:18)
09. Everlasting Light (12:35)

Код:
Exact Audio Copy V0.99 prebeta 5 from 4. May 2009

EAC extraction logfile from 24. April 2010, 17:39

Mono / Holy Ground: NYC Live with The Wordless Music Orchestra

Used drive  : PIONEER DVD-RW  DVR-115D   Adapter: 1  ID: 0

Read mode               : Secure
Utilize accurate stream : Yes
Defeat audio cache      : Yes
Make use of C2 pointers : No

Read offset correction                      : 48
Overread into Lead-In and Lead-Out          : No
Fill up missing offset samples with silence : Yes
Delete leading and trailing silent blocks   : No
Null samples used in CRC calculations       : Yes
Used interface                              : Installed external ASPI interface
Gap handling                                : Appended to previous track

Used output format              : User Defined Encoder
Selected bitrate                : 128 kBit/s
Quality                         : High
Add ID3 tag                     : No
Command line compressor         : C:\Program Files\FLAC\flac.exe
Additional command line options : -V -8 -T "artist=%a" -T "title=%t" -T "album=%g" -T "date=%y" -T "tracknumber=%n" -T "genre=%m" %s

TOC of the extracted CD

     Track |   Start  |  Length  | Start sector | End sector
    ---------------------------------------------------------
        1  |  0:00.00 | 12:55.18 |         0    |    58142
        2  | 12:55.18 | 10:23.52 |     58143    |   104919
        3  | 23:18.70 |  5:50.52 |    104920    |   131221
        4  | 29:09.47 | 10:30.24 |    131222    |   178495
        5  | 39:39.71 |  2:53.01 |    178496    |   191471
        6  | 42:32.72 |  3:03.23 |    191472    |   205219
        7  | 45:36.20 | 11:37.50 |    205220    |   257544
        8  | 57:13.70 |  9:18.04 |    257545    |   299398
        9  | 66:31.74 | 12:35.44 |    299399    |   356067

Track  1

     Filename E:\EAC\Mono - Holy Ground- NYC Live with The Wordless Music Orchestra [FLAC]\01 - Ashes In The Snow.wav

     Pre-gap length  0:00:02.00

     Peak level 99.1 %
     Track quality 100.0 %
     Test CRC C3A9B444
     Copy CRC C3A9B444
     Track not present in AccurateRip database
     Copy OK

Track  2

     Filename E:\EAC\Mono - Holy Ground- NYC Live with The Wordless Music Orchestra [FLAC]\02 - Burial At Sea.wav

     Peak level 99.1 %
     Track quality 100.0 %
     Test CRC 45FA0CA3
     Copy CRC 45FA0CA3
     Track not present in AccurateRip database
     Copy OK

Track  3

     Filename E:\EAC\Mono - Holy Ground- NYC Live with The Wordless Music Orchestra [FLAC]\03 - Silent Flight, Sleeping Dawn.wav

     Peak level 71.0 %
     Track quality 100.0 %
     Test CRC 96605432
     Copy CRC 96605432
     Track not present in AccurateRip database
     Copy OK

Track  4

     Filename E:\EAC\Mono - Holy Ground- NYC Live with The Wordless Music Orchestra [FLAC]\04 - Are You There .wav

     Peak level 99.1 %
     Track quality 100.0 %
     Test CRC 2AA6AC7F
     Copy CRC 2AA6AC7F
     Track not present in AccurateRip database
     Copy OK

Track  5

     Filename E:\EAC\Mono - Holy Ground- NYC Live with The Wordless Music Orchestra [FLAC]\05 - 2 Candles, 1 Wish.wav

     Peak level 64.1 %
     Track quality 99.9 %
     Test CRC 860859F7
     Copy CRC 860859F7
     Track not present in AccurateRip database
     Copy OK

Track  6

     Filename E:\EAC\Mono - Holy Ground- NYC Live with The Wordless Music Orchestra [FLAC]\06 - Where Am I.wav

     Peak level 72.9 %
     Track quality 99.9 %
     Test CRC DF48BFEB
     Copy CRC DF48BFEB
     Track not present in AccurateRip database
     Copy OK

Track  7

     Filename E:\EAC\Mono - Holy Ground- NYC Live with The Wordless Music Orchestra [FLAC]\07 - Pure As Snow.wav

     Peak level 99.1 %
     Track quality 99.9 %
     Test CRC 800F1E05
     Copy CRC 800F1E05
     Track not present in AccurateRip database
     Copy OK

Track  8

     Filename E:\EAC\Mono - Holy Ground- NYC Live with The Wordless Music Orchestra [FLAC]\08 - Halcyon (Beautiful Days).wav

     Peak level 99.1 %
     Track quality 100.0 %
     Test CRC D8A3B9E5
     Copy CRC D8A3B9E5
     Track not present in AccurateRip database
     Copy OK

Track  9

     Filename E:\EAC\Mono - Holy Ground- NYC Live with The Wordless Music Orchestra [FLAC]\09 - Everlasting Light.wav

     Peak level 99.1 %
     Track quality 99.7 %
     Test CRC 0B2CD784
     Copy CRC 0B2CD784
     Track not present in AccurateRip database
     Copy OK

None of the tracks are present in the AccurateRip database

No errors occurred

End of status report
Код:
-----------------------

DON'T MODIFY THIS FILE

-----------------------

PERFORMER: auCDtect Task Manager, ver. 1.5.1RC4 build 1.5.1.5
Copyright (c) 2008-2010 y-soft. All rights reserved
http://y-soft.org

ANALYZER: auCDtect: CD records authenticity detector, version 0.8.2
Copyright (c) 2004 Oleg Berngardt. All rights reserved.
Copyright (c) 2004 Alexander Djourik. All rights reserved.

FILE: 09 - Everlasting Light.flac
  Size: 75203768 Hash: 3EC28856C54A1A64630330613B15496C Accuracy: -m0
  Conclusion: CDDA 100%
  Signature: 8674948FBB89419A5A378C6A95207247A55BD0B0
FILE: 08 - Halcyon (Beautiful Days).flac
  Size: 57188757 Hash: 4F223EAA4368D9FD44A16D8E89466BBE Accuracy: -m0
  Conclusion: CDDA 100%
  Signature: F86F05EAD3AA688D88C6101417B32BE566F4CFC3
FILE: 07 - Pure As Snow.flac
  Size: 74171962 Hash: 39DFE8595D7F1FFE652DA240F7DC3480 Accuracy: -m0
  Conclusion: CDDA 100%
  Signature: 87E76C7212E92F6FFDCA23614862AA8C44BA7ECC
FILE: 06 - Where Am I.flac
  Size: 14608893 Hash: 119CAF642E667068B681FF7599F0F180 Accuracy: -m0
  Conclusion: CDDA 100%
  Signature: 1B0116E37B12D8397D0714D8EB9D815884141669
FILE: 05 - 2 Candles, 1 Wish.flac
  Size: 13998212 Hash: 0236931BF96691DA92B474701957DA48 Accuracy: -m0
  Conclusion: CDDA 100%
  Signature: 2347D5A846177204B3591AA4CF1E3D1502D88223
FILE: 04 - Are You There .flac
  Size: 56580755 Hash: 9511F7899AA98D60C634688886736B02 Accuracy: -m0
  Conclusion: CDDA 100%
  Signature: 1FB291B4A0423DCBC69172E5ABC6E0335EA6DEC2
FILE: 03 - Silent Flight, Sleeping Dawn.flac
  Size: 31366394 Hash: 5255140F41C8EE0E83D4EE4C05196788 Accuracy: -m0
  Conclusion: CDDA 100%
  Signature: 16A06DF3E134AFB9257E5DECDA51178423224D6E
FILE: 02 - Burial At Sea.flac
  Size: 61733074 Hash: C9D2F834EBB4EAB94FE98E843ED29EC9 Accuracy: -m0
  Conclusion: CDDA 100%
  Signature: 72DE0A22A641FB053AD96F4E3BA4C4593EB6CB3C
FILE: 01 - Ashes In The Snow.flac
  Size: 83733940 Hash: 157CD8FA9BDC6A2675EA65562CB1EC96 Accuracy: -m0
  Conclusion: CDDA 99%
  Signature: CA20DE86DCF5ED7EB588975221CA7951776DF2BC





Приятного прослушивания.
Mono (nnm-club).torrent
 Торрент: Платиновая раздача  Зарегистрирован
 
Скачать


 Зарегистрирован:   15 Июн 2012 06:13:38
 Размер:   3,19 GB  (
 Рейтинг:   5 (Голосов: 11)
 Поблагодарили:   44
 Проверка:   Оформление проверено модератором 15 Июн 2012 06:13:52
Как cкачать  ·  Как раздать  ·  Правильно оформить  ·  Поднять ратио!  

_________________
In Excelsis.
Феникс
Uploader 100+
Стаж: 7 лет 10 мес.
Сообщений: 2051
Ratio: 1442,279
Раздал: 163,6 TB
100%
witch.png
Преогромное Вам спасибо!
niask
Стаж: 8 лет 7 мес.
Сообщений: 200
Ratio: 6,581
84.97%
Откуда: Калуга
russia.gif
Спасибо! Жаль только, нет альбома 2012 года "For My Parents"...
Нормальный Ник
Стаж: 8 лет 1 мес.
Сообщений: 4
Ratio: 24,803
0.5%
Оставшаяся дискографии планируется к выкладке?
Показать сообщения:   
Начать новую тему   Ответить на тему    Торрент-трекер NNM-Club -> East Asian Music -> Asian Rock, Metal (Lossless) Часовой пояс: GMT + 3
Страница 1 из 1