Интеллигентный торрент-трекер
canvas not supported
Нас вместе: 4 293 615

Приключения мультяшек / Tiny Toon Adventures (1990-1992) DVDRip (1-3 сезоны, 98 серий из 98)


 
 
RSS
Начать новую тему   Ответить на тему    Торрент-трекер NNM-Club -> Мультфильмы -> Зарубежные Мультсериалы
Автор Сообщение
denver7979 ®
Зам. Куратора Детского.
Модератор Видео.
RG Всё лучшее - детям!
 
Стаж: 6 лет 10 мес.
Сообщений: 6438
Ratio: 453,122
Раздал: 27,5 TB
Поблагодарили: 258796
100%
Откуда: Земля
ussr.gif
Приключения мультяшек / Tiny Toon Adventures (1990-1992) DVDRip (1-3 сезоны, 98 серий из 98)
Год выпуска: 1990-1992
Жанр: Рисованная анимация, Приключения, Комедия, категория 12+

Описание:
Мультфильм «Приключения мультяшек» (Tiny Toon Adventures) - это не просто мультфильм, а целый сериал, который был создан студией «Уорнер Бразерс». Идея этого мультфильма состояла в том, чтобы брать полюбившихся героев сказок и фильмов и соединять их в одном мультике. Но потом все изменилось.Сюжет мультфильма: Бэбс и Бастер Банни просто друзья. Именно они являются главными звездами этого мультфильма. Бэбс Банни – это кролик. Но она не совсем похож на своих родственников. Она розовая и очень уж активная. Бэбс готова на все, лишь бы было над чем посмеяться, любит пародии, которые удачно получаются и у нее самой. Ее полное имя Барбара. Бастер Банни уже кролик голубого окраса, он все–таки лидер в компании мультяшек и должен постоянно быть в курсе всех дел и разбираться с тем, что происходит вокруг. Но, несмотря на такую спокойную и серьезную должность, он тоже любить посмеяться, что и делает при каждом удобном случае. И Бэбс, и Бастеру около четырнадцати лет. Они, как и все герои этого сериала, посещают Мультуниверситет, где получают необходимые для них знания. Учителями в этом заведении тоже являются мультяшки. Действительность главные герои мультфильма воспринимают в розовых очках. Поэтому очень часто сами создают искусственные трудности и препятствия на своем пути. Друзей у них довольно много. Это и Плаки Дак, и Хэмтон Пиг, и Ширли Лун, и даже Гребешок.Все мультяшки очень общительны и они легко находят общий язык не только друг с другом, но и со всеми, кто встречается на их пути. Приключения так часто находят их, что мультяшкам даже не приходится скучать. Но даже в таких ситуациях они ведут себя так, словно находятся на сцене перед зрителями. Мультсериал поможет разнообразить любой досуг и сделать его самым приятным.

Режиссер: Стивен Спилберг, Кен Бойер, Рич Эронс, Арт Леонарди
Персонажи: Чарльз Адлер, Тресс МакНилл, Джо Аляски, Фрэнк Уэлкер, Дон Мессик, Кри Саммер, Морис ЛаМарш, Дэнни Кукси, Роб Полсен, Кэт Сауси



Продолжительность: 98 x ~ 00:22:00 [1-3 сезоны, 98 серий из 98]
Качество видео: DVDRip
Перевод: Дублированный

Видео: MPEG4, XviD, 640x480 (4:3), 23.976 fps, 957 Kbps (0.130 bit/pixel)
Аудио: MP3, 48.0 KHz, 2 ch, 128 Kbps, CBR
Видео
Идентификатор : 0
Формат : MPEG-4 Visual
Профиль формата : Advanced Simple@L5
Параметр BVOP формата : 1
Параметр QPel формата : Нет
Параметр GMC формата : Без точки перехода
Параметр матрицы формата : Default (H.263)
Идентификатор кодека : XVID
Идентификатор кодека/Подсказка : XviD
Продолжительность : 21 м.
Битрейт : 957 Кбит/сек
Ширина : 640 пикселей
Высота : 480 пикселей
Соотношение сторон : 4:3
Частота кадров : 23,976 кадра/сек
Цветовое пространство : YUV
Субдискретизация насыщенности : 4:2:0
Битовая глубина : 8 бит
Тип развёртки : Прогрессивная
Метод сжатия : С потерями
Бит/(Пиксели*Кадры) : 0.130
Размер потока : 149 Мбайт (87%)
Библиотека кодирования : XviD 1.2.1 (UTC 2008-12-04)

Аудио
Идентификатор : 1
Формат : MPEG Audio
Версия формата : Version 1
Профиль формата : Layer 3
Идентификатор кодека : 55
Идентификатор кодека/Подсказка : MP3
Продолжительность : 21 м.
Вид битрейта : Постоянный
Битрейт : 128 Кбит/сек
Каналы : 2 канала
Частота : 48,0 КГц
Метод сжатия : С потерями
Размер потока : 19,9 Мбайт (12%)
Выравнивание : Соединение по промежуткам
Продолжительность промежутка : 42 мс. (1,00 видеокадр)
Время предзагрузки промежутка : 504 мс.
Язык : Не определен
Первый сезон (1990—1991)
The Looney Beginning
A Quack in the Quarks
The Wheel O' Comedy
Test Stress
The Buster Bunny Bunch
Her Wacky Highness
Journey to the Center of Acme Acres
Stuff that Goes Bump in the Night
It’s Buster Bunny Time
Looking Out for the Little Guy
Starting from Scratch
Hare Raising Night
Furrball Follies
The Acme Acres Zone
Life in the 1990’s
Rock 'N' Roar
Promise Her Anything
Here Today, Gone Tomorrow
[SPAM]!
You Asked For It
Gang Busters
Citizen Max
Wake Up Call of the Wild
Buster and the Wolverine
You Asked For It, Part II
Hollywood Plucky
Europe in 30 Minutes
The Wacko World of Sports
Rainy Daze
Fields of Honey
Sawdust and Toonsil
Spring in Acme Acres
Psychic Fun-Omenon Day
The Wide World of Elmyra
A Ditch in Time
Animaniacs!
Career Oppor-Toon-ities
Strange Tales of Weird Science
Inside Plucky Duck
The Acme Bowl
Dating, Acme Acres Style
Looniversity Daze
Best O' Plucky Duck Day
Hero Hamton
Whale’s Tales
Ask Mr. Popular
Son of Looniversity Daze
Mr. Popular Rules of Cool
Fairy Tales for the 90’s
Who Bopped Bugs Bunny?
Tiny Toons Music Television
The Return to the Acme Acres Zone
The Acme Home Shopping Show
Weirdest Story Ever Told
Viewer Mail Day
Son of the Wacko World of Sports
Pollution Solution
You Asked For It Again
Brave Tales of Real Rabbits
How Sweetie It Is
New Character Day
Hero Hamton
No Toon Is An Island
K-ACME TV
High Toon

Второй сезон (1991—1992)
Pledge Week
Going Places
Elephant Issues
Hog-Wild Hamton
Playtime Toons
Toon Physics
Acme Cable TV
Buster and Babs Go Hawaiian
Henny Youngman Day
Love Disconnection
Kon Ducki
Sepulveda Boulevard
Take Elmyra Please

Третий Сезон (1992)
Thirteensomething
New Class Day
Fox Trot
What Makes Toon Tick
Flea For Your Life
The Return of Batduck
Toons Take Over
Toons from the Crypt
Two-Tone Town
Buster’s Directorial Debut
Washingtoon
Toon TV
Grandma’s Dead
Music Day
The Horror or Slumber Party Mountain
Sport Shorts
Weekday Afternoon Live
A Cat’s Eye View
Best of Buster Day
It’s a Wonderful Tiny Toons Christmas Special
1991 год
Премия Эмми, США за выдающуюся анимационную программу (Стивен Спилберг, Том Рюггер, Кен Бойер, Арт Леонарди, Арт Вителло, Пол Дини, Шерри Стонер) — победитель
Премия Environmental Media, США за серию Whales Tales («Сказки китов») — победитель .
Премия Young Artist, США: Лучший мультсериал — победитель
1992 год
Премия Эмми, США за выдающуюся анимационную программу (Стивен Спилберг, Том Рюггер, Шерри Стонер, Рич Аронс, Арт Леонарди) — номинация
1993 год
Премия Эмми, США за выдающуюся анимационную программу (Стивен Спилберг, Том Рюггер, Шерри Стонер, Рич Аронс, Байрон Вонс, Кен Бойер, Альфред Джимено,Дэвид Уест — победитель
Премия Young Artist, США: Выдающееся озвучание молодой роли (Уитби Хертфорд) — номинация.
Скриншоты:




Приключения мультяшек на NNM-club

Время раздачи: с 11:00 до 01:00
[NNM-Club.me]_Priklychenie.Myltyashek.torrent
 Торрент: Платиновая раздача  Зарегистрирован
 
Скачать


Примагнититься
 Зарегистрирован:   15 Сен 2013 18:14:24
 Размер:   16,3 GB  (
 Рейтинг:   4,9 (Голосов: 61)
 Поблагодарили:   164
 Проверка:   Оформление проверено модератором 15 Сен 2013 18:19:45
Как cкачать  ·  Как раздать  ·  Правильно оформить  ·  Поднять ратио!  
nibler732
Стаж: 9 лет 7 мес.
Сообщений: 35
Ratio: 42,347
100%
Откуда: Украина, Кировоград
ukraine.gif
:респект:
Ferd
Стаж: 7 лет 2 мес.
Сообщений: 14
Ratio: 1,164
60.19%
ukraine.gif
Цитата:
категория 12+

вы серьёзно?!

_________________
Молитва очищает душу, а боль — тело. ~ Warhammer 40000: Dawn of War
Показать сообщения:   
Начать новую тему   Ответить на тему    Торрент-трекер NNM-Club -> Мультфильмы -> Зарубежные Мультсериалы Часовой пояс: GMT + 3
Страница 1 из 1