Интеллигентный торрент-трекер
canvas not supported
Нас вместе: 4 276 149

Притворщик / The Pretender (Сезон 2 Серии 01-22 (22)) (1998-1999) DVDRip [H.264] (Sci-Fi Russia)


Страницы:   Пред.  1, 2 
 
RSS
Начать новую тему   Ответить на тему    Торрент-трекер NNM-Club -> Релизы от FTP85 -> Притворщик
Автор Сообщение
Next ®
FTP 85
Uploader 100+
Стаж: 10 лет 3 мес.
Сообщений: 2404
Ratio: 385,204
Раздал: 164,8 TB
Поблагодарили: 41500
100%
russia.gif
Притворщик / The Pretender. Сезон 2 Серии 01-22 (22) (1996-1997) DVDRip [H.264] (Sci-Fi Russia)
Год выпуска: 1998-1999
Жанр: Мистика, Драма, Фантастика, Триллер, Детектив

Режиссер: Джеймс Уитмор-мл., Джим Чарлестон, Джо Наполитано, Фредерик Кинг Келлер, Верн Гиллам, Чак Бауман, Майкл Лэнж, Стивен Лонг Митчел и Скот Лаутанен
Актеры: Майкл Т. Уайсс, Андреа Паркер, Патрик Буше, Джон Гриз, Райан Мерриман, Ричард Маркус, Alex Wexo, Джеймс Дентон, Сэм Айерс, Харви Преснелл и другие

Описание фильма:
Среди нас есть Притворщики. Гении, способные стать любым, кем они захотят.
В 1963, корпорация под названием Центр изолировала юного Притворщика по имени Джарод и использовала его неординарные способности в своих целях. Но однажды Притворщик сбежал...



Продолжительность: 22х42 мин
Качество видео: DVDRip (HQ.Edition)
Субтитры: Английские (вшитые, отключаемые)
Перевод: Многоголосый закадровый, профессиональный (SCI FI Channel Russia)

Релиз группа:
Релиз подготовил и выпустил: Next.
Работа со звуковым рядом: Alex7691 и Next

Отдельное "Спасибо" уходит Kvaker, Kravec, Mistra, Vall, fkbr, Miss Parker, Miss S, всем, кто помогал собирать старый звук и продолжает работать на новым.
Благодаря Вам, "Притворщик" получил новую жизнь.

Видео: MPEG-4 AVC/H.264, 712x480 (4:3) ~2 786 Kbps avg, 23.98fps, 0.118 bit/pixel
Аудио #1: 48 kHz, AC3 Dolby Digital, 2/0 (L,R) ch, ~192.00 kbps avg (Rus)
Аудио #2: 48 kHz, AC3 Dolby Digital, 2/0 (L,R) ch, ~192.00 kbps avg (Eng)
Код:
Complete name                            : E:\Torent\The.Pretender.Series.2.Complete.HQ.Edition.x264\The.Pretender.S02E01.Back.From.The.Dead.Again.HR.DVDRip.HQ.Edition.x264-N-(Rus.Eng).mkv
Format                                   : Matroska
Format version                           : Version 4 / Version 2
File size                                : 522 MiB
Duration                                 : 46mn 33s
Overall bit rate                         : 1 569 Kbps
Encoded date                             : UTC 2013-09-15 12:32:09
Writing application                      : mkvmerge v6.2.0 ('Promised Land') built on Apr 28 2013 12:22:01
Writing library                          : libebml v1.3.0 + libmatroska v1.4.0

Video
ID                                       : 1
Format                                   : AVC
Format/Info                              : Advanced Video Codec
Format profile                           : High@L4.1
Format settings, CABAC                   : Yes
Format settings, ReFrames                : 9 frames
Codec ID                                 : V_MPEG4/ISO/AVC
Duration                                 : 46mn 33s
Bit rate                                 : 1 153 Kbps
Width                                    : 712 pixels
Height                                   : 476 pixels
Display aspect ratio                     : 16:9
Frame rate mode                          : Constant
Frame rate                               : 24.979 fps
Original frame rate                      : 24.188 fps
Color space                              : YUV
Chroma subsampling                       : 4:2:0
Bit depth                                : 8 bits
Scan type                                : Progressive
Bits/(Pixel*Frame)                       : 0.136
Stream size                              : 384 MiB (74
Language                                 : English
Default                                  : No
Forced                                   : No

Audio #1
ID                                       : 2
Format                                   : AC-3
Format/Info                              : Audio Coding 3
Mode extension                           : CM (complete main)
Format settings, Endianness              : Big
Codec ID                                 : A_AC3
Duration                                 : 46mn 33s
Bit rate mode                            : Constant
Bit rate                                 : 192 Kbps
Channel(s)                               : 2 channels
Channel positions                        : Front: L R
Sampling rate                            : 48.0 KHz
Bit depth                                : 16 bits
Compression mode                         : Lossy
Stream size                              : 63.9 MiB (12
Title                                    : Rus
Language                                 : Russian
Default                                  : Yes
Forced                                   : Yes

Audio #2
ID                                       : 3
Format                                   : AC-3
Format/Info                              : Audio Coding 3
Format profile                           : Dolby Digital
Mode extension                           : CM (complete main)
Format settings, Endianness              : Big
Codec ID                                 : A_AC3
Duration                                 : 46mn 33s
Bit rate mode                            : Constant
Bit rate                                 : 192 Kbps
Channel(s)                               : 2 channels
Channel positions                        : Front: L R
Sampling rate                            : 48.0 KHz
Bit depth                                : 16 bits
Compression mode                         : Lossy
Delay relative to video                  : 15ms
Stream size                              : 63.9 MiB (12
Title                                    : English AC3
Language                                 : English
Default                                  : No
Forced                                   : No
Скриншоты:




Время раздачи: 24/7 - круглосуточно
[NNM-Club.me]_The.Pretender.Series.2.Complete.HQ.Edition.x264.torrent
 Торрент: Платиновая раздача  Зарегистрирован
 
Скачать


Примагнититься
 Зарегистрирован:   15 Сен 2013 21:27:19
 Размер:   12,2 GB  (
 Рейтинг:   4,9 (Голосов: 39)
 Поблагодарили:   145
 Проверка:   Оформление проверено модератором 15 Сен 2013 21:32:25
Как cкачать  ·  Как раздать  ·  Правильно оформить  ·  Поднять ратио!  
BЕSTER
Стаж: 7 лет 8 мес.
Сообщений: 34
Ratio: 1,241
100%
Next

Когда добъёте притворщика?
Next ®
FTP 85
Uploader 100+
Стаж: 10 лет 3 мес.
Сообщений: 2404
Ratio: 385,204
Раздал: 164,8 TB
Поблагодарили: 41500
100%
russia.gif
Ну, "бить мы его не будем", но, доделать доделаем, при наличие свободного времени. Весь материал готов (звук, картинка) надо только скомпоновать и всё.
goarmy
Стаж: 7 лет 10 мес.
Сообщений: 58
Ratio: 2,954
Поблагодарили: 27
4.52%
Откуда: Архан​гельс​к​
russia.gif
Next писал(а): Перейти к сообщению
Ну, "бить мы его не будем", но, доделать доделаем, при наличие свободного времени. Весь материал готов (звук, картинка) надо только скомпоновать и всё.


А время все идет и идет.... когда же уже..
BЕSTER
Стаж: 7 лет 8 мес.
Сообщений: 34
Ratio: 1,241
100%
Да уж. Буду остальные сезоны в другом качестве качать. Хотя и ждал я появление всего сериала в таком качестве с 2009 года.
KaiWork
Стаж: 2 года 6 мес.
Сообщений: 1
Ratio: 4180,257
92.56%
Мы всё ещё ждем продолжения...
rondvv
Стаж: 4 года 9 мес.
Сообщений: 1
Ratio: 9,053
34.29%
Next
Очень ждем!
BЕSTER
Стаж: 7 лет 8 мес.
Сообщений: 34
Ratio: 1,241
100%
Next

Шансы на продолжение есть?
taras2222
Стаж: 7 лет 5 мес.
Сообщений: 232
Ratio: 67,528
100%
Откуда: Odessa
ukraine.gif
продолжение будет? таки интересный сериал!
sedertax
Стаж: 7 лет 4 мес.
Сообщений: 60
Ratio: 1,808
90%
peru.gif
Next писал(а): Перейти к сообщению
Весь материал готов, именно в таком качестве. Надо "прикрутить" русскую звуковую дорожку и выпустить "в свет". Есть некоторые сложности со временем, но это поправимо.
За полтора года, надеюсь, некоторые сложности со временем закончились и можно ожидать третий сезон?
samcat
Стаж: 6 лет 10 мес.
Сообщений: 2
Ratio: 10,597
3.6%
russia.gif
проект по реанимации 3 и 4 сезонов прикрыли?
Показать сообщения:   
Начать новую тему   Ответить на тему    Торрент-трекер NNM-Club -> Релизы от FTP85 -> Притворщик Часовой пояс: GMT + 3
Страницы:   Пред.  1, 2
Страница 2 из 2