Интеллигентный торрент-трекер
canvas not supported
Нас вместе: 4 314 130

Roku de Nashi Majutsu Koushi to Akashic Records / Акашийские хроники худшего преподавателя магии [2017, TV, 12 ep] WEB-DL 720p Raw+Rus


 
 
RSS
Начать новую тему   Ответить на тему    Торрент-трекер NNM-Club -> Аниме с озвучкой -> Аниме с озвучкой (HD)
Автор Сообщение
Ampho_DnB ®
RG Аниме
 
Стаж: 5 лет 7 мес.
Сообщений: 4214
Ratio: 180,923
Поблагодарили: 68775
100%
Откуда: дует?
roody.gif
Roku de Nashi Majutsu Koushi to Akashic Records / Akashic Records of Bastard Magic Instructor / Акашийские хроники худшего преподавателя магии
Жанр: приключения, комедия, фэнтези
Тип: TV-сериал
Продолжительность: 12 эпизодов по 25 минут
Выпуск: c 04.04.2017 по 20.06.2017
Автор: Хицудзи Таро
Режиссер: Кадзуто Минато
Производство: Liden Films
Информационные ссылки: AniDB || World Art || MAL || ANN
Релиз подготовлен группой AniLibria
  • Перевод: Falk & Keitaro
  • Озвучивание: Dejz & Kanade Eu
  • Тайминг и работа со звуком: Skeptic

Описание:
Обучаться магии куда сложнее, чем любому другому делу. К этому нужно подходить со всей ответственностью. Маги обладают невероятными способностями и изучают тайны мироздания. Академический городок Феджит как раз занимается обучением лучших магов. Здесь учатся Систи и Люмия - трудолюбивые и целеустремлённые волшебницы. Но недавно их настигла печальная новость - их любимый преподаватель Хьюг уволился. Горюя об этой ужасной потере, девушки размышляют, кто же придёт на замену этому талантливому педагогу.

Но реальность оказалась куда суровее их фантазий. Новый преподаватель по имени Глен Рэйдерс настолько плох, что даже не удосужился прийти вовремя на первый же урок. Посреди занятий ему хочется спать, вместо лекций и объяснений он заставляет ребят обучаться самостоятельно, а сам в это время мангу почитывает. И этого ленивца рекомендовал сам директор и уважаемый профессор! Гневу девочек нет предела, ведь они собирались стать профессионалками, а с таким педагогом далеко не уедут. Чем же обернётся эта непростая ситуация?
Качество: WEB-DLRip | Энкод: HorribleSubs
Язык озвучки: Японский и Русский
Формат: MKV
Видео: x264, 1280x720, ~1 776 kbps, 23.976 fps
Аудио: AAC, 128 kbps, 44.1 kHz, 2 ch
Аудио: AAC, 192 kbps, 48.0 kHz, 2 ch
Субтитры: ASS, Встроенные, Полные | Надписи
01. Бездарный Выродок
02. Просто немного мотивации
03. Дурак и смерть
04. Магические Состязания
05. Королева и принцесса
06. Злая сущность
07. Море падающих звёзд
08. Дурак и Звезда
09. Причина жить
10. Золотоискатель!?
11. Противостояние! Командная битва магов
12. В поисках своего места
General
Unique ID : 202852312124785541424428933246141834647 (0x989BEF291A5A11299727ACC98F63A597)
Complete name : Rokudenashi Majutsu Koushi to Akashic Records [AniLibria]\Rokudenashi_Majutsu_Koushi_to_Akashic_Records_[01]_[AniLibria_Tv]_[HDTV-Rip_720p].mkv
Format : Matroska
Format version : Version 4 / Version 2
File size : 365 MiB
Duration : 24 min 19 s
Overall bit rate : 2 100 kb/s
Encoded date : UTC 2017-05-15 14:13:18
Writing application : mkvmerge v11.0.0 ('Alive') 64bit
Writing library : libebml v1.3.4 + libmatroska v1.4.5
Attachments : 9708.ttf / 9923.ttf / 9925.ttf / 10213.ttf / 10436.ttf / OpenSans-Semibold.ttf

Video
ID : 1
Format : AVC
Format/Info : Advanced Video Codec
Format profile : High@L4
Format settings, CABAC : Yes
Format settings, ReFrames : 6 frames
Codec ID : V_MPEG4/ISO/AVC
Duration : 24 min 19 s
Bit rate : 1 776 kb/s
Width : 1 280 pixels
Height : 720 pixels
Display aspect ratio : 16:9
Frame rate mode : Variable
Frame rate : 23.976 (23976/1000) FPS
Color space : YUV
Chroma subsampling : 4:2:0
Bit depth : 8 bits
Scan type : Progressive
Bits/(Pixel*Frame) : 0.080
Stream size : 308 MiB (84%)
Title : Original
Writing library : x264 core 120 r2120 0c7dab9
Encoding settings : cabac=1 / ref=6 / deblock=1:1:1 / analyse=0x3:0x113 / me=umh / subme=8 / psy=1 / psy_rd=0.40:0.00 / mixed_ref=1 / me_range=16 / chroma_me=1 / trellis=1 / 8x8dct=1 / cqm=0 / deadzone=21,11 / fast_pskip=1 / chroma_qp_offset=-2 / threads=4 / sliced_threads=0 / nr=0 / decimate=1 / interlaced=0 / bluray_compat=0 / constrained_intra=0 / bframes=3 / b_pyramid=2 / b_adapt=2 / b_bias=0 / direct=3 / weightb=1 / open_gop=0 / weightp=2 / keyint=250 / keyint_min=23 / scenecut=40 / intra_refresh=0 / rc_lookahead=50 / rc=2pass / mbtree=1 / bitrate=1776 / ratetol=1.0 / qcomp=0.60 / qpmin=0 / qpmax=69 / qpstep=4 / cplxblur=20.0 / qblur=0.5 / vbv_maxrate=3552 / vbv_bufsize=8880 / nal_hrd=none / ip_ratio=1.40 / aq=1:0.60
Language : Japanese
Default : Yes
Forced : No

Audio #1
ID : 2
Format : AAC
Format/Info : Advanced Audio Codec
Format profile : LC
Codec ID : A_AAC
Duration : 24 min 19 s
Bit rate : 192 kb/s
Channel(s) : 2 channels
Channel positions : Front: L R
Sampling rate : 48.0 kHz
Frame rate : 46.875 FPS (1024 spf)
Compression mode : Lossy
Stream size : 33.4 MiB (9%)
Title : Dejz & Kanade Eu
Language : Russian
Default : Yes
Forced : Yes

Audio #2
ID : 3
Format : AAC
Format/Info : Advanced Audio Codec
Format profile : LC
Codec ID : A_AAC
Duration : 24 min 19 s
Bit rate : 128 kb/s
Channel(s) : 2 channels
Channel positions : Front: L R
Sampling rate : 44.1 kHz
Frame rate : 43.066 FPS (1024 spf)
Compression mode : Lossy
Stream size : 22.3 MiB (6%)
Title : Original
Language : Japanese
Default : No
Forced : No

Text #1
ID : 4
Format : ASS
Codec ID : S_TEXT/ASS
Codec ID/Info : Advanced Sub Station Alpha
Duration : 15 min 48 s
Bit rate : 31 b/s
Count of elements : 22
Compression mode : Lossless
Stream size : 3.62 KiB (0%)
Title : Надписи
Language : Russian
Default : Yes
Forced : Yes

Text #2
ID : 5
Format : ASS
Codec ID : S_TEXT/ASS
Codec ID/Info : Advanced Sub Station Alpha
Duration : 24 min 1 s
Bit rate : 194 b/s
Count of elements : 437
Compression mode : Lossless
Stream size : 34.3 KiB (0%)
Title : Субтиры
Language : Russian
Default : No
Forced : No


Время раздачи: До первых сидов
[NNM-Club.name]_Rokudenashi Majutsu Koushi to Akashic Records [AniLibria].torrent
 Торрент: Платиновая раздача  Зарегистрирован
 
Скачать


Примагнититься
 Зарегистрирован:   24 Июн 2017 23:59:30
 Размер:   4,39 GB  (
 Рейтинг:   4,4 (Голосов: 28)
 Поблагодарили:   91
 Проверка:   Оформление проверено модератором 25 Июн 2017 00:51:24
Как cкачать  ·  Как раздать  ·  Правильно оформить  ·  Поднять ратио!  
Eladiel
Стаж: 3 года 9 мес.
Сообщений: 109
Ratio: 15,864
Раздал: 621 GB
Поблагодарили: 981
100%
Откуда: Из нирванны
nnm-club.gif
Русское название у вас конечно ... даааа. =) Повеселило.
Аниме годное, но с подводными камнями. В общем на любителя. Рекомендую =)

_________________
Ampho_DnB ®
RG Аниме
 
Стаж: 5 лет 7 мес.
Сообщений: 4214
Ratio: 180,923
Поблагодарили: 68775
100%
Откуда: дует?
roody.gif
Eladiel-сан здесь? Настоящая?
Mosco​wGole​m​
Стаж: 3 года 10 мес.
Сообщений: 24
Ratio: 99,007
Поблагодарили: 468
100%
ussr.gif
Eladiel писал(а): Перейти к сообщению
Русское название у вас конечно ... даааа. =) Повеселило.
Аниме годное, но с подводными камнями. В общем на любителя. Рекомендую =)

а что с ним не так? всегда эталоном был world-art.ru по русскому названию,ну еще можно с кино-[ничто] брать но там обычно оно другое)

_________________
О тот, чья сущность темнее сумерек и багрянее рек крови, Во имя тебя, Погребённого в глубинах времён, Во славу твою, Я присягаю тьме. Пусть те безумцы, что противостоят нам, Будут уничтожены нашей с тобой единой силой!
ElSwanko
Куратор Аниме
Модератор Музыки
Стаж: 10 лет 10 мес.
Сообщений: 10680
Ratio: 552,387
Поблагодарили: 39748
100%
Откуда: ур-пр​остра​нство​ преко​нтину​ума​
roody.gif
MoscowGolem писал(а): Перейти к сообщению
всегда эталоном был world-art.ru по русскому названию

Которое не всегда правильное там. Попадаются и такие вот упоротые варианты, да.

_________________
Правила: Аниме, Манга, OST || Музыка
Помощь: Скриншоты || MediaInfo || auCDtect
Ampho_DnB ®
RG Аниме
 
Стаж: 5 лет 7 мес.
Сообщений: 4214
Ratio: 180,923
Поблагодарили: 68775
100%
Откуда: дует?
roody.gif
Торрент обновлен. Добавлена 12 серия.
Релиз завершен.
Показать сообщения:   
Начать новую тему   Ответить на тему    Торрент-трекер NNM-Club -> Аниме с озвучкой -> Аниме с озвучкой (HD) Часовой пояс: GMT + 3
Страница 1 из 1