Интеллигентный торрент-трекер
canvas not supported
Нас вместе: 4 302 300

Busou Shoujo Machiavellianism / Armed Girl's Machiavellism / Тирания вооруженных девушек [2017, TV, 12 ep] HDTV 720p Raw+Rus


 
 
RSS
Начать новую тему   Ответить на тему    Торрент-трекер NNM-Club -> Аниме с озвучкой -> Аниме с озвучкой (HD)
Автор Сообщение
Ampho_DnB ®
RG Аниме
 
Стаж: 5 лет 8 мес.
Сообщений: 2480
Ratio: 178,629
Поблагодарили: 69791
100%
Откуда: дует?
roody.gif
Busou Shoujo Machiavellianism / Armed Girl's Machiavellism / Тирания вооруженных девушек
Жанр: приключения, комедия
Тип: TV-сериал
Продолжительность: 12 эпизодов по 25 минут
Выпуск: c 05.04.2017 по 21.06.2017
Автор: Куроками Юя
Снято по манге: Busou Shoujo Machiavellianism
Режиссер: Татибана Хидэки
Производство: Silver Link
Информационные ссылки: AniDB || World Art || MAL || ANN
Релиз подготовлен группой AniLibria
  • Перевод: MedusaSub
  • Озвучивание: Itashi, Sharon, Hekomi
  • Тайминг и работа со звуком: Skeptic (01-04), Ghost (05-xx)

Описание:
В академии сожительства Аичи ношение оружия - дело совершенно обычное. Для девушек. Каждая из них в качестве самообороны носит с собой, например, биту. Когда-то давно в этой элитной академии обучали только девушек, и бояться им было нечего. Но с тех пор, как туда начали зачислять и парней, ситуация изменилась, и из-за страха девушки начали вооружаться. В академии даже образовалась дружина из пяти мечниц, которые, спустя несколько поколений, взяли на себя обязанность по исправлению трудных подростков, которые не могут прижиться в своей прошлой школе.

Номура Фудо, придя в эту академию, особо не был знаком с порядками этого заведения. Он надеялся увидеть райский сад из доброжелательных девушек, а получил совершенно обратное. Да и про накрашенных парней ему никто не говорил! Но тем не менее, теперь ему, как и всем парням до него, придётся пройти через процедуру усмирения. Да и мечницам посоветовали обратить на него пристальное внимание, а значит поблажек ждать не стоит. Каков же будет результат?
Качество: HDTVRip | Энкод: Leopard-Raws
Язык озвучки: Японский и Русский
Формат: MKV
Видео: x264, 1280x720, ~2 189 kbps, 23.976 fps
Аудио: AAC, 192 kbps, 48.0 kHz, 2 ch
Аудио: AAC, 192 kbps, 48.0 kHz, 2 ch
Субтитры: ASS, Встроенные, Полные | Надписи
01. Великолепный клинок Рин Онигавара
02. Бунт в обители целомудрия
03. Меч честности, Мэри Кикакуджо
04. Состязания начинаются!
05. Сводящий с ума меч, Вараби
06. Скандальная записка
07. Неоднозначный меч Сатори
08. Его и транс-её обстоятельства
09. День, когда любовь умерла
10. Ужасающий клинок, Тсукуё Инаба
11. Душевная пуля, которую я буду помнить всегда
12. Тирания девушек
General
Unique ID : 193002887657264640030674031300499505201 (0x9133010AAE675971B1E8E4C4E77C8031)
Complete name : Busou Shoujo Machiavellianism [AniLibria]\Busou_Shoujo_Machiavellianism_[01]_[AniLibria_Tv]_[HDTV-Rip_720p].mkv
Format : Matroska
Format version : Version 4 / Version 2
File size : 443 MiB
Duration : 24 min 0 s
Overall bit rate : 2 578 kb/s
Encoded date : UTC 2017-05-15 17:47:30
Writing application : mkvmerge v11.0.0 ('Alive') 64bit
Writing library : libebml v1.3.4 + libmatroska v1.4.5
Attachments : 4299.ttf / 8538.ttf / 10424.ttf / ofont.ru_TechnicalDi.ttf

Video
ID : 1
Format : AVC
Format/Info : Advanced Video Codec
Format profile : High@L4.1
Format settings, CABAC : Yes
Format settings, ReFrames : 4 frames
Codec ID : V_MPEG4/ISO/AVC
Duration : 24 min 0 s
Bit rate : 2 189 kb/s
Width : 1 280 pixels
Height : 720 pixels
Display aspect ratio : 16:9
Frame rate mode : Constant
Frame rate : 23.976 (24000/1001) FPS
Color space : YUV
Chroma subsampling : 4:2:0
Bit depth : 8 bits
Scan type : Progressive
Bits/(Pixel*Frame) : 0.099
Stream size : 376 MiB (85%)
Title : Original
Writing library : x264 core 129 r2245+729M 1a52e03
Encoding settings : cabac=1 / ref=4 / deblock=1:1:-1 / analyse=0x3:0x113 / me=umh / subme=9 / psy=1 / fade_compensate=0.00 / psy_rd=1.00:0.00 / mixed_ref=1 / me_range=24 / chroma_me=1 / trellis=2 / 8x8dct=1 / cqm=0 / deadzone=21,11 / fast_pskip=1 / chroma_qp_offset=-2 / threads=8 / lookahead_threads=1 / sliced_threads=0 / nr=0 / decimate=1 / interlaced=0 / bluray_compat=0 / constrained_intra=0 / fgo=0 / bframes=9 / b_pyramid=2 / b_adapt=2 / b_bias=0 / direct=1 / weightb=1 / open_gop=0 / weightp=2 / keyint=240 / keyint_min=24 / scenecut=40 / intra_refresh=0 / rc=crf / mbtree=0 / crf=18.5 / qcomp=0.72 / qpmin=0 / qpmax=69 / qpstep=4 / ip_ratio=1.40 / pb_ratio=1.30 / aq=1:0.85
Language : Japanese
Default : Yes
Forced : No
Color range : Limited
Color primaries : BT.709
Transfer characteristics : BT.709
Matrix coefficients : BT.709

Audio #1
ID : 2
Format : AAC
Format/Info : Advanced Audio Codec
Format profile : LC
Codec ID : A_AAC
Duration : 24 min 0 s
Bit rate : 192 kb/s
Channel(s) : 2 channels
Channel positions : Front: L R
Sampling rate : 48.0 kHz
Frame rate : 46.875 FPS (1024 spf)
Compression mode : Lossy
Stream size : 33.0 MiB (7%)
Title : Sharon & Hekomi & Itashi
Language : Russian
Default : Yes
Forced : Yes

Audio #2
ID : 3
Format : AAC
Format/Info : Advanced Audio Codec
Format profile : LC
Codec ID : A_AAC
Duration : 24 min 0 s
Bit rate : 192 kb/s
Channel(s) : 2 channels
Channel positions : Front: L R
Sampling rate : 48.0 kHz
Frame rate : 46.875 FPS (1024 spf)
Compression mode : Lossy
Stream size : 32.9 MiB (7%)
Title : Original
Language : Japanese
Default : No
Forced : No

Text #1
ID : 4
Format : ASS
Codec ID : S_TEXT/ASS
Codec ID/Info : Advanced Sub Station Alpha
Duration : 22 min 38 s
Bit rate : 20 b/s
Count of elements : 40
Compression mode : Lossless
Stream size : 3.41 KiB (0%)
Title : Надписи
Language : Russian
Default : Yes
Forced : Yes

Text #2
ID : 5
Format : ASS
Codec ID : S_TEXT/ASS
Codec ID/Info : Advanced Sub Station Alpha
Duration : 23 min 34 s
Bit rate : 145 b/s
Count of elements : 306
Compression mode : Lossless
Stream size : 25.1 KiB (0%)
Title : Субтитры
Language : Russian
Default : No
Forced : No


Время раздачи: До первых сидов
[NNM-Club.name]_Busou Shoujo Machiavellianism [AniLibria].torrent
 Торрент: Платиновая раздача  Зарегистрирован
 
Скачать


Примагнититься
 Зарегистрирован:   24 Июн 2017 23:56:55
 Размер:   4,62 GB  (
 Рейтинг:   4,2 (Голосов: 30)
 Поблагодарили:   78
 Проверка:   Оформление проверено модератором 25 Июн 2017 00:52:15
Как cкачать  ·  Как раздать  ·  Правильно оформить  ·  Поднять ратио!  
iLdragon
Стаж: 2 года 8 мес.
Сообщений: 224
Ratio: 7,042
Поблагодарили: 32
100%
Отличный сериал =) Интересный ГГ и сюжет норм.
Ampho_DnB ®
RG Аниме
 
Стаж: 5 лет 8 мес.
Сообщений: 2480
Ratio: 178,629
Поблагодарили: 69791
100%
Откуда: дует?
roody.gif
Торрент обновлен. Добавлена 12 серия.
Релиз завершен.
Показать сообщения:   
Начать новую тему   Ответить на тему    Торрент-трекер NNM-Club -> Аниме с озвучкой -> Аниме с озвучкой (HD) Часовой пояс: GMT + 3
Страница 1 из 1