Интеллигентный торрент-трекер
canvas not supported
Нас вместе: 4 313 853

Tsuki ga Kirei / Какая красивая луна! [2017, TV, 12 ep] HDTV 720p Raw+Rus


 
 
RSS
Начать новую тему   Ответить на тему    Торрент-трекер NNM-Club -> Аниме с озвучкой -> Аниме с озвучкой (HD)
Автор Сообщение
Ampho_DnB ®
RG Аниме
 
Стаж: 5 лет 7 мес.
Сообщений: 4213
Ratio: 181,084
Поблагодарили: 68769
100%
Откуда: дует?
roody.gif
Tsuki ga Kirei / Какая красивая луна!
Жанр: романтика
Тип: TV-сериал
Продолжительность: 12 эпизодов по 25 минут
Выпуск: c 07.04.2017 по 30.06.2017
Сценарий: Какихара Юко
Режиссер: Киси Сэйдзи
Производство: Feel
Информационные ссылки: AniDB || World Art || MAL || ANN
Релиз подготовлен группой AniLibria
  • Перевод: laci (01, 03-xx), HectoR (02)
  • Озвучивание: Nuts, HectoR, Hekomi, Cleo-chan
  • Тайминг и работа со звуком: Jess

Описание:
Аканэ Мизуно - участница школьной беговой команды. Она любила бегать с самого детства и состояла в команде ещё с момента поступления в среднюю школу. Её отца по работе частенько отправляют в разные районы страны, и вот его семье пришлось переехать в городок под названием Кавагоэ. Так Аканэ, будучи в третьем классе средней школы, столкнулась с переходом в новую школу. Несмотря на свой хвастливый характер дома, в школе она преображается, становясь скромной и заботливой о чувствах других.

Котаро Азуми - президент литературного клуба, он обожает книги и мечтает стать писателем. С детства Котаро был тесно связан с провинциальной жизнью и даже состоял в группе традиционной японской музыки. Он беззаботный и не особо переживает об учёбе, поэтому его оценки вряд ли можно назвать хорошими. Это аниме в полной мере раскроет характеры главных героев и их окружения, их взросление в подростковом периоде, а также расскажет нам о юношеской невинной любви, которая пройдёт через множество изменений и неопределённостей.
Качество: HDTVRip | Энкод: Leopard-Raws
Язык озвучки: Японский и Русский
Формат: MKV
Видео: x264, 1280x720, ~2 159 kbps, 23.976 fps
Аудио: AAC, 192 kbps, 48.0 kHz, 2 ch
Аудио: AAC, 192 kbps, 48.0 kHz, 2 ch
Субтитры: ASS, Встроенные, Полные | Надписи
01. Весна и непростое время
02. Горсть песка
03. Выть на луну
04. Кратковременный дождь
05. Сердце
06. Беги, Мелос!
07. Не сдерживай себя, отвечая на любовь
08. Vita Sexualis
09. Поднимается ветер
10. Заходящее солнце
11. Призыв к знаниям
12. Затем
General
Unique ID : 239171498698085381688159969295341670804 (0xB3EEC14F74E3ED54B1AAC7CDB5AF5194)
Complete name : Tsuki ga Kirei [AniLibria]\Tsuki_ga_Kirei_[01]_[AniLibria_TV]_[HDTV-Rip_720p].mkv
Format : Matroska
Format version : Version 4 / Version 2
File size : 448 MiB
Duration : 24 min 29 s
Overall bit rate : 2 558 kb/s
Encoded date : UTC 2017-05-16 12:49:10
Writing application : mkvmerge v11.0.0 ('Alive') 64bit
Writing library : libebml v1.3.4 + libmatroska v1.4.5
Attachments : Courier_BoldOblique.ttf / Courier_Typewriter.ttf / Gabriola.ttf / OpenSans-Semibold.ttf

Video
ID : 1
Format : AVC
Format/Info : Advanced Video Codec
Format profile : High@L4.1
Format settings, CABAC : Yes
Format settings, ReFrames : 4 frames
Codec ID : V_MPEG4/ISO/AVC
Duration : 24 min 29 s
Bit rate : 2 159 kb/s
Width : 1 280 pixels
Height : 720 pixels
Display aspect ratio : 16:9
Frame rate mode : Constant
Frame rate : 23.976 (24000/1001) FPS
Color space : YUV
Chroma subsampling : 4:2:0
Bit depth : 8 bits
Scan type : Progressive
Bits/(Pixel*Frame) : 0.098
Stream size : 378 MiB (84%)
Title : Original
Writing library : x264 core 129 r2245+729M 1a52e03
Encoding settings : cabac=1 / ref=4 / deblock=1:1:-1 / analyse=0x3:0x113 / me=umh / subme=9 / psy=1 / fade_compensate=0.00 / psy_rd=1.00:0.00 / mixed_ref=1 / me_range=24 / chroma_me=1 / trellis=2 / 8x8dct=1 / cqm=0 / deadzone=21,11 / fast_pskip=1 / chroma_qp_offset=-2 / threads=8 / lookahead_threads=1 / sliced_threads=0 / nr=0 / decimate=1 / interlaced=0 / bluray_compat=0 / constrained_intra=0 / fgo=0 / bframes=9 / b_pyramid=2 / b_adapt=2 / b_bias=0 / direct=1 / weightb=1 / open_gop=0 / weightp=2 / keyint=240 / keyint_min=24 / scenecut=40 / intra_refresh=0 / rc=crf / mbtree=0 / crf=18.5 / qcomp=0.72 / qpmin=0 / qpmax=69 / qpstep=4 / ip_ratio=1.40 / pb_ratio=1.30 / aq=1:0.85
Language : Japanese
Default : Yes
Forced : Yes
Color range : Limited
Color primaries : BT.709
Transfer characteristics : BT.709
Matrix coefficients : BT.709

Audio #1
ID : 2
Format : AAC
Format/Info : Advanced Audio Codec
Format profile : LC
Codec ID : A_AAC
Duration : 24 min 29 s
Bit rate : 192 kb/s
Channel(s) : 2 channels
Channel positions : Front: L R
Sampling rate : 48.0 kHz
Frame rate : 46.875 FPS (1024 spf)
Compression mode : Lossy
Stream size : 33.7 MiB (8%)
Title : Nuts, HectoR, Hekomi & Cleo-chan
Language : Russian
Default : Yes
Forced : Yes

Audio #2
ID : 3
Format : AAC
Format/Info : Advanced Audio Codec
Format profile : LC
Codec ID : A_AAC
Duration : 24 min 29 s
Bit rate : 192 kb/s
Channel(s) : 2 channels
Channel positions : Front: L R
Sampling rate : 48.0 kHz
Frame rate : 46.875 FPS (1024 spf)
Compression mode : Lossy
Stream size : 33.6 MiB (7%)
Title : Original
Language : Japanese
Default : No
Forced : No

Text #1
ID : 4
Format : ASS
Codec ID : S_TEXT/ASS
Codec ID/Info : Advanced Sub Station Alpha
Duration : 22 min 0 s
Bit rate : 14 b/s
Count of elements : 29
Compression mode : Lossless
Stream size : 2.38 KiB (0%)
Title : Надписи
Language : Russian
Default : Yes
Forced : Yes

Text #2
ID : 5
Format : ASS
Codec ID : S_TEXT/ASS
Codec ID/Info : Advanced Sub Station Alpha
Duration : 22 min 0 s
Bit rate : 160 b/s
Count of elements : 364
Compression mode : Lossless
Stream size : 25.9 KiB (0%)
Title : Субтитры
Language : Russian
Default : No
Forced : No


Время раздачи: До первых сидов
[NNM-Club.name]_Tsuki ga Kirei [AniLibria].torrent
 Торрент:   Зарегистрирован
 
Зарегистрируйтесь и скачайте торрент!
13,5 KB

Примагнититься
 Зарегистрирован:   06 Июл 2017 22:30:47
 Размер:   4,86 GB  (
 Рейтинг:   3,7 (Голосов: 19)
 Поблагодарили:   50
 Проверка:   Оформление проверено модератором 07 Июл 2017 00:23:47
Как cкачать  ·  Как раздать  ·  Правильно оформить  ·  Поднять ратио!  
Slemerok
Стаж: 4 года 9 мес.
Сообщений: 17
Ratio: 6,636
5.02%
это типа для женщин или и пацанам тоже можно смотреть?
Ampho_DnB ®
RG Аниме
 
Стаж: 5 лет 7 мес.
Сообщений: 4213
Ratio: 181,084
Поблагодарили: 68769
100%
Откуда: дует?
roody.gif
Slemerok писал(а): Перейти к сообщению
это типа для женщин или и пацанам тоже можно смотреть?

Парням тоже можно, некоторым.
igalgor3
Стаж: 7 лет 5 мес.
Сообщений: 487
Ratio: 13,439
0%
отличная раздача. и озвучка замечательная, и внутри контейнера, и надписи переведены. побольше бы таких.

Slemerok писал(а): Перейти к сообщению
это типа для женщин или и пацанам тоже можно смотреть?
довольно трогательная романтическая история, если мелодрамы нравятся, можно смотреть смело. среди друзей гг, правда, есть один трап (даже в такие произведения их стали вставлять, увы), но он побочный персонаж и много экранного времени не занимает.
Ampho_DnB ®
RG Аниме
 
Стаж: 5 лет 7 мес.
Сообщений: 4213
Ratio: 181,084
Поблагодарили: 68769
100%
Откуда: дует?
roody.gif
Торрент обновлен. Добавлена 12 серия.
Релиз завершен.
Показать сообщения:   
Начать новую тему   Ответить на тему    Торрент-трекер NNM-Club -> Аниме с озвучкой -> Аниме с озвучкой (HD) Часовой пояс: GMT + 3
Страница 1 из 1