Интеллигентный торрент-трекер
canvas not supported
Нас вместе: 4 294 129

Eromanga Sensei / Эроманга-сенсей [2017, TV, 12 ep] HDTV 720p Raw+Rus


 
 
RSS
Начать новую тему   Ответить на тему    Торрент-трекер NNM-Club -> Аниме с озвучкой -> Аниме с озвучкой (HD)
Автор Сообщение
Ampho_DnB ®
RG Аниме
 
Стаж: 5 лет 9 мес.
Сообщений: 2559
Ratio: 180,349
Поблагодарили: 70753
100%
Откуда: дует?
roody.gif
Eromanga Sensei / Эроманга-сенсей
Жанр: Комедия, Драма, Романтика
Тип: TV-сериал
Продолжительность: 12 эпизодов по 25 минут
Выпуск: c 09.04.2017 по 25.06.2017
Автор: Фусими Цукаса
Режиссер: Такэсита Рёхэй
Производство: A-1 Pictures Inc.
Информационные ссылки: AniDB || World Art || MAL || ANN
Релиз подготовлен группой AniLibria
  • Перевод: N.O. & ElViS
  • Озвучивание: Amikiri & Anzen & LeeAnnushka
  • Тайминг и работа со звуком: DarkKnight

Описание:
Главный герой Масамунэ Изуми оказался в весьма непростой ситуации. Ему всего 15 лет, а на него уже свалилось столько жизненных тягот: нужно ходить в школу, делать уроки, содержать дом, да ещё и ухаживать за своей младшей сестрой Сагири Изуми. И всё это без помощи родителей! Проблема в том, что Масамунэ не видел лица своей сестры с того самого момента, как она переехала к нему в дом. 12-летняя Сагири - настоящая хикикомори, она покидает свою комнату лишь в крайних случаях, а из дома не выходит и вовсе.

Приходится парню подрабатывать, чтобы хоть как-то выживать в этом сложном мире. У него хорошо подвешен язык, и поэтому он пишет новеллы. Рисовать Масамунэ не умеет, а потому пользуется услугами некого Эроманги-сэнсэя, который помогает ему оформлять истории в мангу. Никто не знает личность Эроманги, но однажды иллюстратор решает провести прямой эфир для поклонников, и Масамунэ узнаёт в кадре эфира комнату своей младшей сестры и понимает, что Сагири и есть его иллюстратор. Вот такое шокирующее открытие!
Качество: HDTVRip | Энкод: Ohys-Raws
Язык озвучки: Японский и Русский
Формат: MKV
Видео: x264, 1280x720, ~1 352 kbps, 23.976 fps
Аудио: AAC, 178 kbps, 48.0 kHz, 2 ch
Аудио: AAC, 192 kbps, 48.0 kHz, 2 ch
Субтитры: ASS, Встроенные, Полные | Надписи
01. Моя маленькая сестрёнка и Запечатанная комната
02. Обычная жизнь старосты и Бесстрашная Фея
03. Обнажённый дом и Падший человек
04. Эроманга-сенсей
05. Придумаем ранобэ с младшей сестрой
06. Масамуне Изуми и 10 миллионов копий
07. Младшая сестра и самая интересная новелла в мире
08. Сагири и фейерверки
09. Сестрёнка и остров фей
10. Масамуне Изуми и маленький сенпай
11. Эти двое встретились
12. Фестиваль Эроманги
General
Unique ID : 206248522535896048873354225363297416721 (0x9B2A054302B76D31AB2AA509BFCAB611)
Complete name : Eromanga-sensei [AniLibria]\Eromanga_sensei_[01]_[AniLibria_TV]_[HDTV-Rip_720p].mkv
Format : Matroska
Format version : Version 4 / Version 2
File size : 301 MiB
Duration : 24 min 0 s
Overall bit rate : 1 751 kb/s
Encoded date : UTC 2017-04-11 20:53:00
Writing application : mkvmerge v8.6.1 ('Flying') 32bit
Writing library : libebml v1.3.3 + libmatroska v1.4.4
Attachments : eurof55.ttf / eurof56.ttf / eurof75.ttf / eurof76.ttf / Nightma0.ttf / ObelixPro (Regular).ttf / OHCRBRG.TTF / OpenSan8.ttf / Passing Notes.ttf / trebuc.ttf / trebuc_0.ttf / TREBUCB0.TTF / TREBUCB2.TTF / trebucbd.ttf / trebucbi.ttf / trebucit.ttf / v_BloodyMurder BB_v1.0.ttf / v_CCCutthroatInt-Regular_v1.1.ttf / v_CCFaceFront-Regular_v1.28.ttf / v_StraightToHellBB_v1.0.ttf / 8GgSZrGr_0.ttf / 1101592.ttf / BOD_NBB_0.ttf / Constacia Modern.ttf / CONSTAN.TTF / CONSTANB.TTF / CONSTANI.TTF / CONSTANZ.TTF / eurof35.ttf / eurof36.ttf

Video
ID : 1
Format : AVC
Format/Info : Advanced Video Codec
Format profile : Main@L4.1
Format settings, CABAC : Yes
Format settings, ReFrames : 4 frames
Codec ID : V_MPEG4/ISO/AVC
Duration : 24 min 0 s
Bit rate : 1 352 kb/s
Width : 1 280 pixels
Height : 720 pixels
Display aspect ratio : 16:9
Frame rate mode : Variable
Frame rate : 23.976 (23976/1000) FPS
Original frame rate : 23.976 (24000/1001) FPS
Color space : YUV
Chroma subsampling : 4:2:0
Bit depth : 8 bits
Scan type : Progressive
Bits/(Pixel*Frame) : 0.061
Stream size : 232 MiB (77%)
Title : Original
Writing library : x264 core 148 r2762+56 6284cf3 t_mod_Custom [8-bit@all X86_64]
Encoding settings : cabac=1 / ref=3 / deblock=1:0:0 / analyse=0x1:0x111 / me=hex / subme=7 / psy=1 / fade_compensate=0.00 / psy_rd=1.00:0.00 / mixed_ref=1 / me_range=16 / chroma_me=1 / trellis=1 / 8x8dct=0 / cqm=0 / deadzone=21,11 / fast_pskip=1 / chroma_qp_offset=-2 / threads=12 / lookahead_threads=2 / sliced_threads=0 / nr=0 / decimate=1 / interlaced=0 / bluray_compat=0 / constrained_intra=0 / fgo=0 / bframes=3 / b_pyramid=2 / b_adapt=1 / b_bias=0 / direct=1 / weightb=1 / open_gop=0 / weightp=2 / keyint=240 / keyint_min=1 / scenecut=40 / intra_refresh=0 / rc_lookahead=40 / rc=crf / mbtree=1 / crf=20.0000 / qcomp=0.60 / qpmin=0:0:0 / qpmax=69:69:69 / qpstep=4 / ip_ratio=1.40 / aq=1:1.50 / aq-sensitivity=10.00 / aq-factor=1.00:1.00:1.00 / aq2=0 / aq3=0
Language : Japanese
Default : Yes
Forced : Yes
Color range : Limited
Color primaries : BT.709
Transfer characteristics : BT.709
Matrix coefficients : BT.709

Audio #1
ID : 2
Format : AAC
Format/Info : Advanced Audio Codec
Format profile : LC
Codec ID : A_AAC
Duration : 24 min 0 s
Bit rate : 192 kb/s
Channel(s) : 2 channels
Channel positions : Front: L R
Sampling rate : 48.0 kHz
Frame rate : 46.875 FPS (1024 spf)
Compression mode : Lossy
Stream size : 33.0 MiB (11%)
Title : Leeannushka & Amikiri & Anzen
Language : Russian
Default : Yes
Forced : Yes

Audio #2
ID : 3
Format : AAC
Format/Info : Advanced Audio Codec
Format profile : LC
Codec ID : A_AAC
Duration : 24 min 0 s
Bit rate : 178 kb/s
Channel(s) : 2 channels
Channel positions : Front: L R
Sampling rate : 48.0 kHz
Frame rate : 46.875 FPS (1024 spf)
Compression mode : Lossy
Stream size : 30.5 MiB (10%)
Title : Original
Language : Japanese
Default : No
Forced : No

Text #1
ID : 4
Format : ASS
Codec ID : S_TEXT/ASS
Codec ID/Info : Advanced Sub Station Alpha
Duration : 23 min 45 s
Bit rate : 102 b/s
Count of elements : 111
Compression mode : Lossless
Stream size : 17.9 KiB (0%)
Title : Надписи
Language : Russian
Default : Yes
Forced : Yes

Text #2
ID : 5
Format : ASS
Codec ID : S_TEXT/ASS
Codec ID/Info : Advanced Sub Station Alpha
Duration : 23 min 45 s
Bit rate : 261 b/s
Count of elements : 449
Compression mode : Lossless
Stream size : 45.4 KiB (0%)
Title : Субтитры
Language : Russian
Default : No
Forced : No


Время раздачи: До первых сидов
[NNM-Club.name]_Eromanga-sensei [AniLibria].torrent
 Торрент: Платиновая раздача  Зарегистрирован
 
Скачать


Примагнититься
 Зарегистрирован:   26 Июн 2017 10:42:09
 Размер:   3,35 GB  (
 Рейтинг:   4,2 (Голосов: 29)
 Поблагодарили:   66
 Проверка:   Оформление проверено модератором 26 Июн 2017 13:48:58
Как cкачать  ·  Как раздать  ·  Правильно оформить  ·  Поднять ратио!  
Гаврила666
Стаж: 7 лет 9 мес.
Сообщений: 198
Ratio: 6,686
100%
russia.gif
забавное описание, привлекательные и вызывающие улыбку скриншоты.
буду смотреть, спасибо за релиз.

чего то я подсел на аниме, кажется в нем процент годноты гораздо выше, чем в среднем по больнице.
Ampho_DnB ®
RG Аниме
 
Стаж: 5 лет 9 мес.
Сообщений: 2559
Ratio: 180,349
Поблагодарили: 70753
100%
Откуда: дует?
roody.gif
Торрент обновлен. Добавлена 12 серия.
Релиз завершен.
Показать сообщения:   
Начать новую тему   Ответить на тему    Торрент-трекер NNM-Club -> Аниме с озвучкой -> Аниме с озвучкой (HD) Часовой пояс: GMT + 3
Страница 1 из 1