Интеллигентный торрент-трекер
canvas not supported
Нас вместе: 4 272 838

Zero kara Hajimeru Mahou no Sho / Grimoire of Zero / Гримуар Зеро [2017, TV, 12 ep] HDTV 720p Raw+Rus


 
 
RSS
Начать новую тему   Ответить на тему    Торрент-трекер NNM-Club -> Аниме с озвучкой -> Аниме с озвучкой (HD)
Автор Сообщение
Ampho_DnB ®
RG Аниме
 
Стаж: 5 лет 10 мес.
Сообщений: 2648
Ratio: 180,865
Поблагодарили: 71805
100%
Откуда: дует?
roody.gif
Zero kara Hajimeru Mahou no Sho / Grimoire of Zero / Гримуар Зеро
Жанр: приключения, фэнтези, экшен
Тип: TV-сериал
Продолжительность: 12 эпизодов по 25 минут
Выпуск: c 10.04.2017 по 26.06.2017
Автор: Кобасири Какэру
Режиссер: Хиракава Тэцуо
Производство: White Fox
Информационные ссылки: AniDB || World Art || MAL || ANN
Релиз подготовлен группой AniFilm
  • Перевод: tengri (01), YakuSub Studio (02-xx)
  • Озвучивание: Octav, Deepson, Rin, Баяна
  • Тайминг и работа со звуком: Vladislav

Описание:
526-й год. В этом мире, полном предрассудков и страхов перед неизвестным, порой очень тяжело выживать, особенно, если ты сильно отличаешься от остальных. Не повезло тебе, если ты рождаешься ведьмой. Церковь устраивает на тебя охоту, да и люди не исключение, ведь кто знает, какие ужасы таит в себе ведьминское колдовство? Не повезло тебе, если ты родился получеловеком. Твоя голова имеет огромную ценность среди ведьм, и тебе приходится всю жизнь проводить в бегах, чтобы не оказаться обезглавленным.

Но по великой случайности один зверочеловек, убегая в очередной раз от погони за его головой, натыкается на ведьму Зеро, которая совершенно не похожа на остальных, так пугающих его, ведьм. Девушка разыскивает опасную книгу, которая в плохих руках может довести до уничтожения мира. Но ведьме в одиночку путешествовать очень опасно, Зеро и так трижды пытались сжечь на костре. Поэтому она решает заручиться помощью зверочеловека. Тот явно не в восторге, но делать нечего, ведь она Зеро обещает вернуть ему человеческий облик. Так и начинается история этих путников.
Качество: HDTVRip | Энкод: Leopard-Raws
Язык озвучки: Японский и Русский
Формат: MKV
Видео: x264, 1280x720, ~1 930 kbps, 23.976 fps
Аудио: AAC, 192 kbps, 48.0 kHz, 2 ch
Аудио: AAC, 192 kbps, 48.0 kHz, 2 ch
Субтитры: ASS, Встроенные, Полные | Надписи
01. Ведьма и Зверочеловек
02. Охота на ведьм
03. Дуэль
04. Дорога в Латетте
05. Колдуны Зеро
06. Тринадцать
07. Пласта, Столица
08. Внучка Сорены
09. Воссоединение
10. Тайное станет явным
11. Ведьма и Колдун
12. Гримуар Зеро
General
Unique ID : 217668624174968280650443496883449150823 (0xA3C173BE7A6107D4ADA2EC35CFE2BD67)
Complete name : Zero kara Hajimeru Mahou no Sho [AniFilm]\[AniFilm] Zero kara Hajimeru Mahou no Sho 01 [TV] [HDTVRip 720p x264] [MVO].mkv
Format : Matroska
Format version : Version 4 / Version 2
File size : 405 MiB
Duration : 24 min 0 s
Overall bit rate : 2 356 kb/s
Encoded date : UTC 2017-06-26 19:28:12
Writing application : mkvmerge v12.0.0 ('Trust / Lust') 64bit
Writing library : libebml v1.3.4 + libmatroska v1.4.5
Attachments : cambriab.ttf / candarab.ttf / trebucbd.ttf / trebucbi.ttf

Video
ID : 1
Format : AVC
Format/Info : Advanced Video Codec
Format profile : High@L4.1
Format settings, CABAC : Yes
Format settings, ReFrames : 4 frames
Codec ID : V_MPEG4/ISO/AVC
Duration : 24 min 0 s
Bit rate : 1 930 kb/s
Width : 1 280 pixels
Height : 720 pixels
Display aspect ratio : 16:9
Frame rate mode : Constant
Frame rate : 23.976 (24000/1001) FPS
Color space : YUV
Chroma subsampling : 4:2:0
Bit depth : 8 bits
Scan type : Progressive
Bits/(Pixel*Frame) : 0.087
Stream size : 331 MiB (82%)
Writing library : x264 core 129 r2245+729M 1a52e03
Encoding settings : cabac=1 / ref=4 / deblock=1:1:-1 / analyse=0x3:0x113 / me=umh / subme=9 / psy=1 / fade_compensate=0.00 / psy_rd=1.00:0.00 / mixed_ref=1 / me_range=24 / chroma_me=1 / trellis=2 / 8x8dct=1 / cqm=0 / deadzone=21,11 / fast_pskip=1 / chroma_qp_offset=-2 / threads=8 / lookahead_threads=1 / sliced_threads=0 / nr=0 / decimate=1 / interlaced=0 / bluray_compat=0 / constrained_intra=0 / fgo=0 / bframes=9 / b_pyramid=2 / b_adapt=2 / b_bias=0 / direct=1 / weightb=1 / open_gop=0 / weightp=2 / keyint=240 / keyint_min=24 / scenecut=40 / intra_refresh=0 / rc=crf / mbtree=0 / crf=18.5 / qcomp=0.72 / qpmin=0 / qpmax=69 / qpstep=4 / ip_ratio=1.40 / pb_ratio=1.30 / aq=1:0.85
Default : Yes
Forced : No
Color range : Limited
Color primaries : BT.709
Transfer characteristics : BT.709
Matrix coefficients : BT.709

Audio #1
ID : 2
Format : AAC
Format/Info : Advanced Audio Codec
Format profile : LC
Codec ID : A_AAC
Duration : 24 min 0 s
Bit rate : 223 kb/s
Channel(s) : 2 channels
Channel positions : Front: L R
Sampling rate : 48.0 kHz
Frame rate : 46.875 FPS (1024 spf)
Compression mode : Lossy
Stream size : 38.2 MiB (9%)
Title : MVO | AniFilm
Language : Russian
Default : Yes
Forced : Yes

Audio #2
ID : 3
Format : AAC
Format/Info : Advanced Audio Codec
Format profile : LC
Codec ID : A_AAC
Duration : 24 min 0 s
Bit rate : 192 kb/s
Channel(s) : 2 channels
Channel positions : Front: L R
Sampling rate : 48.0 kHz
Frame rate : 46.875 FPS (1024 spf)
Compression mode : Lossy
Stream size : 33.0 MiB (8%)
Title : Original
Language : Japanese
Default : No
Forced : No

Text #1
ID : 4
Format : ASS
Codec ID : S_TEXT/ASS
Codec ID/Info : Advanced Sub Station Alpha
Duration : 20 min 51 s
Bit rate : 4 b/s
Count of elements : 3
Compression mode : Lossless
Stream size : 748 Bytes (0%)
Title : Надписи
Language : Russian
Default : Yes
Forced : Yes

Text #2
ID : 5
Format : ASS
Codec ID : S_TEXT/ASS
Codec ID/Info : Advanced Sub Station Alpha
Duration : 23 min 47 s
Bit rate : 123 b/s
Count of elements : 295
Compression mode : Lossless
Stream size : 21.4 KiB (0%)
Title : Полный перевод
Language : Russian
Default : No
Forced : No

Menu
00:00:00.000 : ru:Начало
00:03:03.417 : ru:Часть Первая
00:15:31.695 : ru:Часть Вторая
00:22:10.786 : ru:Эндинг


Время раздачи: До первых сидов
[NNM-Club.name]_Zero kara Hajimeru Mahou no Sho [AniFilm].torrent
 Торрент: Платиновая раздача  Зарегистрирован
 
Скачать


Примагнититься
 Зарегистрирован:   06 Авг 2017 19:39:15
 Размер:   4,51 GB  (
 Рейтинг:   4,5 (Голосов: 23)
 Поблагодарили:   94
 Проверка:   Оформление проверено модератором 07 Авг 2017 07:50:56
Как cкачать  ·  Как раздать  ·  Правильно оформить  ·  Поднять ратио!  
centrion_b
Стаж: 8 лет 7 мес.
Сообщений: 8
Ratio: 2,597
11.19%
Откуда: Altay
russia.gif
Анимэшка классная. Только уже есть 11 серия переведённая...
Ampho_DnB ®
RG Аниме
 
Стаж: 5 лет 10 мес.
Сообщений: 2648
Ratio: 180,865
Поблагодарили: 71805
100%
Откуда: дует?
roody.gif
Торрент обновлен. Добавлены 11 и 12 серия.
Релиз завершен.
Показать сообщения:   
Начать новую тему   Ответить на тему    Торрент-трекер NNM-Club -> Аниме с озвучкой -> Аниме с озвучкой (HD) Часовой пояс: GMT + 3
Страница 1 из 1