Интеллигентный торрент-трекер
canvas not supported
Нас вместе: 4 274 940

Saenai Heroine no Sodatekata Flat / Saekano: How to Raise a Boring Girlfriend.flat / Как из обычной девушки воспитать героиню [ТВ-2] [2017, TV, 11 ep + SP] HDTV 720p Raw+Rus


 
 
RSS
Начать новую тему   Ответить на тему    Торрент-трекер NNM-Club -> Аниме с озвучкой -> Аниме с озвучкой (HD)
Автор Сообщение
Ampho_DnB ®
RG Аниме
 
Стаж: 5 лет 10 мес.
Сообщений: 2645
Ratio: 180,742
Поблагодарили: 71765
100%
Откуда: дует?
roody.gif
Saenai Heroine no Sodatekata Flat / Saekano: How to Raise a Boring Girlfriend.flat / Как из обычной девушки воспитать героиню
Жанр: комедия, романтика, гарем, школа, этти
Тип: TV-сериал
Продолжительность: 11 эпизодов и спэшл по 25 минут
Выпуск: c 14.04.2017 по 23.06.2017
Автор: Маруто Фумиаки
Режиссер: Камэй Канта
Производство: A-1 Pictures Inc.
Информационные ссылки: AniDB || World Art || MAL || ANN
Релиз подготовлен группой AniLibria
  • Перевод: Gerale & Komugi-chan & Ryuji & Tousaka Jun
  • Озвучивание: Aemi, LeeAnnushka, Kari
  • Тайминг и работа со звуком: Пиратехник

Описание:
Часто мы оказываемся в плену своих увлечений, и ничего не видим вокруг, кроме них. Так и старшеклассник-отаку Томоя Аки не хотел замечать ничего, что окружало его. Настолько, что встретив девушку Мегуми, обладающую неземной красотой, даже не сразу понял, что она, оказывается, учится с ним в одной школе. Но красота её была скрыта за незаметной личностью и понятна лишь Томое. Поэтому парень решил исправить это досадное недоразумение и создать игру - симулятор свиданий с Мегуми в главной роли, чтобы в неё влюбились все.

Но сделать это оказалось не так-то просто. Мегуми скучна до безобразия, а поэтому на роль главной героини подходит с очень большой натяжкой. Но Томоя не сдаётся и привлекает к этому нелёгкому делу помощников, которые будут рисовать и писать сценарий для симулятора свиданий. А Мегуми тем временем прониклась идеей и пытается начать походить на ту самую героиню, которой её пытаются выставить. В новом сезоне ребят ожидают новые трудности и приключения на пути создания игры.
Качество: HDTVRip | Энкод: Ohys-Raws
Язык озвучки: Японский и Русский
Формат: MKV
Видео: x264, 1280x720, ~1 350 kbps, 23.976 fps
Аудио: AAC, 192 kbps, 48.0 kHz, 2 ch
Аудио: AAC, 192 kbps, 48.0 kHz, 2 ch
Субтитры: ASS, Встроенные, Полные | Надписи
00. Фансервис любви и чистого сердца
01. Столкновение двух скучных конкуренток
02. Реально серьёзная развилка
03. Первый проект, второй проект и Великое размышление
04. Новый рут за три дня и две ночи
05. Крайний срок или Пробуждение
06. Сроки, закопанные под снегом
07. Новый план мести
08. Девушка, которая не сломала флаг
09. Выпускной с поворотом
10. Вызов Богу
11. Перезагрузка и новое начало
General
Unique ID : 253490620483981707786345813696815569818 (0xBEB4848570C30DBEB99655920F101B9A)
Complete name : Saenai Heroine no Sodatekata [TV2] [AniLibria]\Saenai_Heroine_no_Sodatekata_2_[01]_[AniLibria_TV]_[HDTV-Rip_720p].mkv
Format : Matroska
Format version : Version 4 / Version 2
File size : 287 MiB
Duration : 22 min 51 s
Overall bit rate : 1 753 kb/s
Encoded date : UTC 2017-04-20 18:37:25
Writing application : mkvmerge v8.6.1 ('Flying') 32bit
Writing library : libebml v1.3.3 + libmatroska v1.4.4
Attachments : AGPRESB.TTF / ANTQUAB.TTF / cambriab.ttf / corbelb.ttf / Gabriola.ttf / GOTHICB.TTF / 8381.OTF / OpenSans-Semibold.ttf

Video
ID : 1
Format : AVC
Format/Info : Advanced Video Codec
Format profile : High 10@L5
Format settings, CABAC : Yes
Format settings, ReFrames : 16 frames
Codec ID : V_MPEG4/ISO/AVC
Duration : 22 min 49 s
Bit rate : 1 350 kb/s
Width : 1 280 pixels
Height : 720 pixels
Display aspect ratio : 16:9
Frame rate mode : Constant
Frame rate : 23.976 (24000/1001) FPS
Color space : YUV
Chroma subsampling : 4:2:0
Bit depth : 10 bits
Scan type : Progressive
Bits/(Pixel*Frame) : 0.061
Stream size : 220 MiB (77%)
Title : Original
Writing library : x264 core 148 r2665 a01e339
Encoding settings : cabac=1 / ref=16 / deblock=1:1:1 / analyse=0x3:0x133 / me=umh / subme=10 / psy=1 / psy_rd=0.70:0.10 / mixed_ref=1 / me_range=24 / chroma_me=1 / trellis=2 / 8x8dct=1 / cqm=0 / deadzone=21,11 / fast_pskip=1 / chroma_qp_offset=-3 / threads=22 / lookahead_threads=5 / sliced_threads=0 / nr=0 / decimate=1 / interlaced=0 / bluray_compat=0 / constrained_intra=0 / bframes=10 / b_pyramid=2 / b_adapt=2 / b_bias=0 / direct=3 / weightb=1 / open_gop=0 / weightp=2 / keyint=250 / keyint_min=23 / scenecut=40 / intra_refresh=0 / rc_lookahead=60 / rc=crf / mbtree=1 / crf=18.0 / qcomp=0.60 / qpmin=0 / qpmax=81 / qpstep=4 / ip_ratio=1.40 / aq=3:0.80
Language : Japanese
Default : Yes
Forced : Yes

Audio #1
ID : 2
Format : AAC
Format/Info : Advanced Audio Codec
Format profile : LC
Codec ID : A_AAC
Duration : 22 min 49 s
Bit rate : 192 kb/s
Channel(s) : 2 channels
Channel positions : Front: L R
Sampling rate : 48.0 kHz
Frame rate : 46.875 FPS (1024 spf)
Compression mode : Lossy
Stream size : 31.4 MiB (11%)
Title : Aemi & Leeannushka & Kari
Language : Russian
Default : Yes
Forced : Yes

Audio #2
ID : 3
Format : AAC
Format/Info : Advanced Audio Codec
Format profile : LC
Codec ID : A_AAC
Duration : 22 min 49 s
Bit rate : 192 kb/s
Channel(s) : 2 channels
Channel positions : Front: L R
Sampling rate : 48.0 kHz
Frame rate : 46.875 FPS (1024 spf)
Compression mode : Lossy
Stream size : 30.8 MiB (11%)
Title : Original
Language : Japanese
Default : No
Forced : No

Text #1
ID : 4
Format : ASS
Codec ID : S_TEXT/ASS
Codec ID/Info : Advanced Sub Station Alpha
Duration : 22 min 50 s
Bit rate : 21 b/s
Count of elements : 41
Compression mode : Lossless
Stream size : 3.61 KiB (0%)
Title : Надписи
Language : Russian
Default : Yes
Forced : Yes

Text #2
ID : 5
Format : ASS
Codec ID : S_TEXT/ASS
Codec ID/Info : Advanced Sub Station Alpha
Duration : 22 min 51 s
Bit rate : 181 b/s
Count of elements : 339
Compression mode : Lossless
Stream size : 30.4 KiB (0%)
Title : Субтитры
Language : Russian
Default : No
Forced : No


Время раздачи: До первых сидов
[NNM-Club.name]_Saenai Heroine no Sodatekata [TV2] [AniLibria].torrent
 Торрент: Платиновая раздача  Зарегистрирован
 
Скачать


Примагнититься
 Зарегистрирован:   02 Июл 2017 23:06:34
 Размер:   2,7 GB  (
 Рейтинг:   3,9 (Голосов: 15)
 Поблагодарили:   40
 Проверка:   Оформление проверено модератором 04 Июл 2017 07:08:15
Как cкачать  ·  Как раздать  ·  Правильно оформить  ·  Поднять ратио!  
Ampho_DnB ®
RG Аниме
 
Стаж: 5 лет 10 мес.
Сообщений: 2645
Ratio: 180,742
Поблагодарили: 71765
100%
Откуда: дует?
roody.gif
Торрент обновлен. Добавлена 11 серия.
Релиз завершен.
Показать сообщения:   
Начать новую тему   Ответить на тему    Торрент-трекер NNM-Club -> Аниме с озвучкой -> Аниме с озвучкой (HD) Часовой пояс: GMT + 3
Страница 1 из 1