Интеллигентный торрент-трекер
canvas not supported
Нас вместе: 4 315 484

Max Corbacho - Discography 17 Releases (1998-2017) [FLAC|Lossless|tracks+.cue, tracks] <Ambient, Space, Drone, Field Recording, Soundscape>


 
 
RSS
Начать новую тему   Ответить на тему    Торрент-трекер NNM-Club -> Electronic -> Easy listening (Lossless)
Автор Сообщение
vilator ®
Модератор Музыки
RG Music
 
Стаж: 8 лет 3 мес.
Сообщений: 5992
Ratio: 129,19
Поблагодарили: 119423
100%
Откуда: Minsk
pirates.png
Max Corbacho Discography

Атмосферный эмбиент лучше всего описывает саундскейпы Макса Корбачо из Барселоны. Сочетая экспрессивную мощь современного синтезаторного программирования и цифрового процессинга с полевыми записями и уникальными звуковыми сэмплами, Макс формирует обширные звуковые пространства, которые окружают слушателя, поглощают разум и чувства и стимулируют воображение.
Жанр: Ambient, Space, Drone, Field Recording, Soundscape • Страна: Spain • Год издания: 1998-2017 • Тип издания: CD, Web • Лейбл: AD21 Music
Аудиокодек: FLAC (*.flac) • Тип рипа: tracks+.cue, tracks • Продолжительность: 21:42:33 • Источник: What, bandcamp • Наличие сканов: Да
Треклист:
Год выпуска: 1998
Продолжительность: 00:53:54
Треклист:

01. Desolada (06:23)
02. Night Caravan (07:00)
03. First Rain (07:55)
04. Erosion (09:12)
05. Death Valley (06:48)
06. Quietness (07:36)
07. Vestiges (09:00)

Exact Audio Copy V0.99 prebeta 4 from 23. January 2008

EAC extraction logfile from 13. September 2009, 19:42

Max Corbacho / Vestiges

Used drive : _NEC DVD_RW ND-3500AG Adapter: 0 ID: 1

Read mode : Secure
Utilize accurate stream : Yes
Defeat audio cache : Yes
Make use of C2 pointers : No

Read offset correction : 48
Overread into Lead-In and Lead-Out : No
Fill up missing offset samples with silence : Yes
Delete leading and trailing silent blocks : No
Null samples used in CRC calculations : Yes
Used interface : Native Win32 interface for Win NT & 2000
Gap handling : Appended to previous track

Used output format : User Defined Encoder
Selected bitrate : 128 kBit/s
Quality : High
Add ID3 tag : No
Command line compressor : C:\Program Files\Exact Audio Copy\Flac\flac.exe
Additional command line options : -T "artist=%a" -T "title=%t" -T "album=%g" -T "date=%y" -T "tracknumber=%n" -T "genre=%m" -5 %s

TOC of the extracted CD

Track | Start | Length | Start sector | End sector
---------------------------------------------------------
1 | 0:00.00 | 6:22.67 | 0 | 28716
2 | 6:22.67 | 6:59.48 | 28717 | 60189
3 | 13:22.40 | 7:54.69 | 60190 | 95808
4 | 21:17.34 | 9:12.01 | 95809 | 137209
5 | 30:29.35 | 6:47.46 | 137210 | 167780
6 | 37:17.06 | 7:36.08 | 167781 | 201988
7 | 44:53.14 | 8:59.39 | 201989 | 242452

Track 1

Filename C:\WINDOWS\Temp\01 – Desolada.wav

Pre-gap length 0:00:02.00

Peak level 100.0 %
Track quality 99.9 %
Test CRC B7D8F198
Copy CRC B7D8F198
Accurately ripped (confidence 1) [720CE8A2]
Copy OK

Track 2

Filename C:\WINDOWS\Temp\02 – Night Caravan.wav

Peak level 100.0 %
Track quality 100.0 %
Test CRC FE33EA4A
Copy CRC FE33EA4A
Accurately ripped (confidence 1) [D2E39539]
Copy OK

Track 3

Filename C:\WINDOWS\Temp\03 – First Rain.wav

Peak level 100.0 %
Track quality 100.0 %
Test CRC 6A4F6E3D
Copy CRC 6A4F6E3D
Accurately ripped (confidence 1) [E0DB46C3]
Copy OK

Track 4

Filename C:\WINDOWS\Temp\04 – Erosion.wav

Peak level 99.9 %
Track quality 100.0 %
Test CRC 0115DEB9
Copy CRC 0115DEB9
Accurately ripped (confidence 1) [1C7ABED9]
Copy OK

Track 5

Filename C:\WINDOWS\Temp\05 – Death Valley.wav

Peak level 41.8 %
Track quality 100.0 %
Test CRC 7FFC7D7D
Copy CRC 7FFC7D7D
Accurately ripped (confidence 1) [90912143]
Copy OK

Track 6

Filename C:\WINDOWS\Temp\06 – Quietness.wav

Peak level 79.0 %
Track quality 100.0 %
Test CRC B016B9C0
Copy CRC B016B9C0
Accurately ripped (confidence 1) [54006F18]
Copy OK

Track 7

Filename C:\WINDOWS\Temp\07 – Vestiges.wav

Peak level 89.0 %
Track quality 100.0 %
Test CRC 01FEF890
Copy CRC 01FEF890
Accurately ripped (confidence 1) [EBE8ED24]
Copy OK

All tracks accurately ripped

No errors occurred

End of status report


REM GENRE Ambient
REM DATE 1998
REM DISCID 630CA007
REM COMMENT "ExactAudioCopy v0.99pb4"
PERFORMER "Max Corbacho"
TITLE "Vestiges"
FILE "01 – Desolada.wav" WAVE
TRACK 01 AUDIO
TITLE "Desolada"
PERFORMER "Max Corbacho"
INDEX 01 00:00:00
FILE "02 – Night Caravan.wav" WAVE
TRACK 02 AUDIO
TITLE "Night Caravan"
PERFORMER "Max Corbacho"
INDEX 01 00:00:00
FILE "03 – First Rain.wav" WAVE
TRACK 03 AUDIO
TITLE "First Rain"
PERFORMER "Max Corbacho"
INDEX 01 00:00:00
FILE "04 – Erosion.wav" WAVE
TRACK 04 AUDIO
TITLE "Erosion"
PERFORMER "Max Corbacho"
INDEX 01 00:00:00
FILE "05 – Death Valley.wav" WAVE
TRACK 05 AUDIO
TITLE "Death Valley"
PERFORMER "Max Corbacho"
INDEX 01 00:00:00
FILE "06 – Quietness.wav" WAVE
TRACK 06 AUDIO
TITLE "Quietness"
PERFORMER "Max Corbacho"
INDEX 01 00:00:00
FILE "07 – Vestiges.wav" WAVE
TRACK 07 AUDIO
TITLE "Vestiges"
PERFORMER "Max Corbacho"
INDEX 01 00:00:00

Год выпуска: 2000
Продолжительность: 01:14:40
Треклист:

01. Primigenial Frontier (08:30)
02. Predawn Darkness (04:04)
03. The Threshold (06:33)
04. Invisible Jewell (07:14)
05. The Great Sparkling Dome (06:55)
06. Soundless Sign (08:08)
07. Far Beyond The Immobile Point (23:22)
08. Ancient Transition (05:14)
09. Hundred Miles of Emptiness (04:40)

-----------------------

DON'T MODIFY THIS FILE

-----------------------

PERFORMER: auCDtect Task Manager, ver. 1.6.0 RC1 build 1.6.0.1
Copyright (c) 2008-2010 y-soft. All rights reserved
http://y-soft.org

ANALYZER: auCDtect: CD records authenticity detector, version 0.8.2
Copyright (c) 2004 Oleg Berngardt. All rights reserved.
Copyright (c) 2004 Alexander Djourik. All rights reserved.

FILE: 09. Hundred Miles of Emptiness.flac
Size: 18243511 Hash: F21F46EBE40DD8FED94F2BB9313B317E Accuracy: -m0
Conclusion: CDDA 100%
Signature: B5B18E551E45E4743A58C2CF1A1925AD936B2DA9
FILE: 08. Ancient Transition.flac
Size: 25178496 Hash: 78EF9B9EE7DAD0BE51D3121FF25AC454 Accuracy: -m0
Conclusion: CDDA 100%
Signature: E622FD69B1F8DBB860D9C7FB07A93F2F9320429F
FILE: 07. Far Beyond The Immobile Point.flac
Size: 129347221 Hash: D98F5712B3ADEF954EAB40BF5DB2C0EB Accuracy: -m0
Conclusion: CDDA 99%
Signature: FBC749B5D4EF265B44154A9AAAF2F659643D157C
FILE: 06. Soundless Sign.flac
Size: 30892637 Hash: 9D70D0D6AEB2C744BA529826EF30EF5C Accuracy: -m0
Conclusion: CDDA 100%
Signature: 371F9F73D02C4FA44BC2148443485C6009F69510
FILE: 05. The Great Sparkling Dome.flac
Size: 36830424 Hash: 1EC74A2F0DE6340DB26646B0F396152A Accuracy: -m0
Conclusion: CDDA 100%
Signature: 1A261D7E345CBF95E69FB20ECEA4E193B3D81738
FILE: 04. Invisible Jewell.flac
Size: 40471095 Hash: 18AEFB0A02C063E10A624C0D8F2D8A07 Accuracy: -m0
Conclusion: CDDA 100%
Signature: 2CB619BC467AEBAF1E9181504E84D49445869C96
FILE: 03. The Threshold.flac
Size: 25774809 Hash: 78196D37E5DC6B2743B7D99ED6189710 Accuracy: -m0
Conclusion: CDDA 100%
Signature: 441FA339AD842DEF88C38CAB0AF5ACC967549399
FILE: 02. Predawn Darkness.flac
Size: 17666631 Hash: 49D1B6CD2D2D5B84B92E09041869E9C5 Accuracy: -m0
Conclusion: CDDA 100%
Signature: AD620D4BA586663B0CA86EC8C69CB5BF19EA4502
FILE: 01. Primigenial Frontier.flac
Size: 37737344 Hash: B20C1435E8BD5F52B9264A882B3FF6E2 Accuracy: -m0
Conclusion: CDDA 86%
Signature: 4A5464A96B45C5E5CA9DD23D6B295347C28A1C3A

Год выпуска: 2002
Продолжительность: 01:13:18
Треклист:

01. Remote Sensing (21:02)
02. Lands Of Sacred Silence (06:09)
03. Magenta Beauty (07:50)
04. The Resonant Memory Of Earth (38:17)

-----------------------

DON'T MODIFY THIS FILE

-----------------------

PERFORMER: auCDtect Task Manager, ver. 1.6.0 RC1 build 1.6.0.1
Copyright (c) 2008-2010 y-soft. All rights reserved
http://y-soft.org

ANALYZER: auCDtect: CD records authenticity detector, version 0.8.2
Copyright (c) 2004 Oleg Berngardt. All rights reserved.
Copyright (c) 2004 Alexander Djourik. All rights reserved.

FILE: 04. The Resonant Memory Of Earth.flac
Size: 209392161 Hash: 1E7E5AB9787081DF9055EB5A6627E6E7 Accuracy: -m0
Conclusion: CDDA 85%
Signature: 5B767CA38351AF9B8C3BD07F13BA7A1E1CC958C3
FILE: 03. Magenta Beauty.flac
Size: 41585410 Hash: 7288A28E617F59E486E0B1848077F41A Accuracy: -m0
Conclusion: CDDA 54%
Signature: 7D5D2FCEEAD19FAE5C718D88B711758B3A25A11D
FILE: 02. Lands Of Sacred Silence.flac
Size: 30261370 Hash: CA9C2F616140BC8E7D008C72728EC8CA Accuracy: -m0
Conclusion: CDDA 100%
Signature: B4585A652D814826DAA7B45A31D6F94867F2C560
FILE: 01. Remote Sensing.flac
Size: 117056637 Hash: 3B5BEC87D841FCD8F0BDE05E116EB381 Accuracy: -m0
Conclusion: CDDA 99%
Signature: EC67276B273E656B9C399A670C62EAA2B03EA586

Год выпуска: 2003
Продолжительность: 01:51:18
Треклист:

01. Indalo (20:23)
02. The Agave Emerges On The Dry Earth (06:50)
03. Lava Atmospheres (09:01)
04. Cabo De Gata (07:59)
05. A Lucid Dream Of Strange Landscapes (06:19)
06. Petrified Wisdom (06:00)
07. Signs Of Former Experiences (13:35)
08. La Cueva De Los Letreros (20:04)
09. Spirits Of Everlasting Ground (21:07)

-----------------------

DON'T MODIFY THIS FILE

-----------------------

PERFORMER: auCDtect Task Manager, ver. 1.6.0 RC1 build 1.6.0.1
Copyright (c) 2008-2010 y-soft. All rights reserved
http://y-soft.org

ANALYZER: auCDtect: CD records authenticity detector, version 0.8.2
Copyright (c) 2004 Oleg Berngardt. All rights reserved.
Copyright (c) 2004 Alexander Djourik. All rights reserved.

FILE: 09. Spirits Of Everlasting Ground.flac
Size: 108691914 Hash: 4FB4D2498FB01382C317C1249B31CBB6 Accuracy: -m0
Conclusion: CDDA 100%
Signature: A9E52610490F4527A5FEF3BB306A615AD5D0E5EC
FILE: 08. La Cueva De Los Letreros.flac
Size: 78538483 Hash: F8973CCCFE27A86C7B96B512BFAF2437 Accuracy: -m0
Conclusion: CDDA 85%
Signature: 6BE3BC5A6324EE8A07B4B477741BA73DB3C13BE2
FILE: 07. Signs Of Former Experiences.flac
Size: 55336772 Hash: 8447E4176E6BA6052B9E0E7B11FCF9A6 Accuracy: -m0
Conclusion: CDDA 92%
Signature: 3491848215983446A1859F0ADC394DB9C3DB99D0
FILE: 06. Petrified Wisdom.flac
Size: 17400327 Hash: A95D61FA614494D60CEBC8C6A8337E4D Accuracy: -m0
Conclusion: MPEG 100%
Signature: 89B00AAF13A9C98EF91D837C416ACB96B4A40A3E
FILE: 05. A Lucid Dream Of Strange Landscapes.flac
Size: 27194239 Hash: 2F971BCB30C7B188DA18AB61D79E7060 Accuracy: -m0
Conclusion: CDDA 43%
Signature: D226C4CF6F14870343C2B5A5174BBB37A2CDBE00
FILE: 04. Cabo De Gata.flac
Size: 44521612 Hash: 9F88E9A1C52040853EC08C1728729884 Accuracy: -m0
Conclusion: CDDA 100%
Signature: 4FE1C04D59768D80FA2B0E9C024C2D034EA30DCF
FILE: 03. Lava Atmospheres.flac
Size: 37049820 Hash: F1B0D9C6123B2F6F943EADD0F0758D80 Accuracy: -m0
Conclusion: CDDA 99%
Signature: AB79583A64E676515CFFAE12AE8A5475F4DC10D9
FILE: 02. The Agave Emerges On The Dry Earth.flac
Size: 31089978 Hash: 68071A566B7AB984480A32B6328B7BEC Accuracy: -m0
Conclusion: CDDA 100%
Signature: 23338288AAFEAAA9CC5C24D2B81C81B8374DC0DC
FILE: 01. Indalo.flac
Size: 90993725 Hash: E3B91083FFD6BF969089ACE2DD8201C1 Accuracy: -m0
Conclusion: CDDA 100%
Signature: B411FE7FD2CDA15A1BDEA2529175798E62CA3FC0

Год выпуска: 2003
Продолжительность: 01:13:28
Треклист:

01. A Spark Of Deity (10:41)
02. Nocturnal Emanations (06:28)
03. The Slow And Wandering Dust (11:19)
04. Abandoned Wind (11:52)
05. Along The Moonlit Rift (09:32)
06. Deep, Ancient (08:53)
07. Consciousness Of Inert Things (05:22)
08. Birthplace Of The Occult Fire (09:21)

-----------------------

DON'T MODIFY THIS FILE

-----------------------

PERFORMER: auCDtect Task Manager, ver. 1.6.0 RC1 build 1.6.0.1
Copyright (c) 2008-2010 y-soft. All rights reserved
http://y-soft.org

ANALYZER: auCDtect: CD records authenticity detector, version 0.8.2
Copyright (c) 2004 Oleg Berngardt. All rights reserved.
Copyright (c) 2004 Alexander Djourik. All rights reserved.

FILE: 08. Birthplace Of The Occult Fire.flac
Size: 31980899 Hash: D99D07B8D0C5AE765D026FFCDD435819 Accuracy: -m0
Conclusion: MPEG 92%
Signature: 52AA0B207089323EC6CAFFFB701641994B52E1C3
FILE: 07. Consciousness Of Inert Things.flac
Size: 26204743 Hash: BE33E9F12B6E313F666EFF65CC47E892 Accuracy: -m0
Conclusion: CDDA 100%
Signature: E0E503EEE49976C05DDE1DEEB61F5E3D5F123934
FILE: 06. Deep, Ancient.flac
Size: 40949491 Hash: B092A26BEBE7B67861CB8D60CF6110A3 Accuracy: -m0
Conclusion: CDDA 100%
Signature: D3DF14C7E7AB9EB7DAD34F27E4036ED6BFC5F180
FILE: 05. Along The Moonlit Rift.flac
Size: 40720804 Hash: 1DD0E8C828E493994CEB6210FD5FF596 Accuracy: -m0
Conclusion: CDDA 100%
Signature: BF11D17F5AF9AD640426D4A32B5275826D7473A8
FILE: 04. Abandoned Wind.flac
Size: 61780342 Hash: 6741B593FF0ABC9470BD161F1B9C8495 Accuracy: -m0
Conclusion: CDDA 100%
Signature: 9CAA32D2EECD7AA1190D0189AD3AD25748127A40
FILE: 03. The Slow And Wandering Dust.flac
Size: 65398818 Hash: E8CAFE9763D939E4BD4909443E2256D2 Accuracy: -m0
Conclusion: CDDA 100%
Signature: A05DF28DAEBDCDE21E10002E14847987D5DE134A
FILE: 02. Nocturnal Emanations.flac
Size: 31792009 Hash: 06723FC2939C52D97BB959718355BC4E Accuracy: -m0
Conclusion: CDDA 100%
Signature: 967939B9A4857121B2D6BCBB478F1B5C607A7D9A
FILE: 01. A Spark Of Deity.flac
Size: 51596593 Hash: 5EBFFF8BCC417C9A96EE9AB576FC7A93 Accuracy: -m0
Conclusion: CDDA 100%
Signature: 4550EF74345B0A25094B85A3979257B600348621

Год выпуска: 2004
Продолжительность: 01:07:39
Треклист:

01. Suntribe (12:47)
02. Out Of Nothing (05:40)
03. Distant Dwellings (12:33)
04. Unknown Radiance (08:45)
05. Across The Spectrum (07:55)
06. Moontribe (19:59)

-----------------------

DON'T MODIFY THIS FILE

-----------------------

PERFORMER: auCDtect Task Manager, ver. 1.6.0 RC1 build 1.6.0.1
Copyright (c) 2008-2010 y-soft. All rights reserved
http://y-soft.org

ANALYZER: auCDtect: CD records authenticity detector, version 0.8.2
Copyright (c) 2004 Oleg Berngardt. All rights reserved.
Copyright (c) 2004 Alexander Djourik. All rights reserved.

FILE: 06. Moontribe.flac
Size: 99692180 Hash: F721364EA47967EA1AC71DA7182F9A12 Accuracy: -m0
Conclusion: CDDA 100%
Signature: 43FB9D85C205AFF190FBC2666BAD0C24059241B2
FILE: 05. Across The Spectrum.flac
Size: 43643419 Hash: 82F4EB1CE133B76E37AD9E922FD8CFBB Accuracy: -m0
Conclusion: CDDA 100%
Signature: 27C45F96E7296ED300E5C6CB9217494F35F1BF4E
FILE: 04. Unknown Radiance.flac
Size: 47939305 Hash: BF22F36460C6F90A0ACCAB871326BD24 Accuracy: -m0
Conclusion: CDDA 100%
Signature: 33CAF4048978AC18CE15159E9EFB3D55D35E2173
FILE: 03. Distant Dwellings.flac
Size: 67059746 Hash: B4EE606D8A363152B92CA2C759F8E0C5 Accuracy: -m0
Conclusion: CDDA 100%
Signature: A8054502B916C6AD4273AEB0916ABAAD3372B734
FILE: 02. Out Of Nothing.flac
Size: 28024737 Hash: C88D5A0822F70056C3D06971F50E0B95 Accuracy: -m0
Conclusion: CDDA 100%
Signature: F34CF4C56EEFD50425159157EEA3FF22BBC94EA4
FILE: 01. Suntribe.flac
Size: 78668703 Hash: 06FCBF88FCCDE0EF1DC19208583EE51A Accuracy: -m0
Conclusion: CDDA 100%
Signature: 916234D45F07B8F022ADFE0E4A8973455F93B3A7

Год выпуска: 2006
Продолжительность: 01:12:26
Треклист:

01. Amnios (07:14)
02. Reborn To Expansion (10:12)
03. Connected Spirits (10:50)
04. Three Circles (05:14)
05. Garden Of Revealed Flame (07:46)
06. Ruby For The Sun (04:02)
07. The Talisman (05:11)
08. The Endless Knot (05:09)
09. Wind's Gallery (03:39)
10. Pearl For The Moon (03:50)
11. Cellular Memory (09:19)

Exact Audio Copy V0.99 prebeta 4 from 23. January 2008

EAC extraction logfile from 11. February 2009, 12:28

Max Corbacho / The Talisman

Used drive : _NEC DVD_RW ND-3500AG Adapter: 0 ID: 1

Read mode : Secure
Utilize accurate stream : Yes
Defeat audio cache : Yes
Make use of C2 pointers : No

Read offset correction : 48
Overread into Lead-In and Lead-Out : No
Fill up missing offset samples with silence : Yes
Delete leading and trailing silent blocks : No
Null samples used in CRC calculations : Yes
Used interface : Native Win32 interface for Win NT & 2000
Gap handling : Appended to previous track

Used output format : User Defined Encoder
Selected bitrate : 128 kBit/s
Quality : High
Add ID3 tag : No
Command line compressor : C:\Program Files\FLAC\flac.exe
Additional command line options : -7 -T "artist=%a" -T "title=%t" -T "album=%g" -T "date=%y" -T "tracknumber=%n" -T "genre=%m" %s

TOC of the extracted CD

Track | Start | Length | Start sector | End sector
---------------------------------------------------------
1 | 0:00.00 | 7:13.71 | 0 | 32545
2 | 7:13.71 | 10:11.39 | 32546 | 78409
3 | 17:25.35 | 10:49.71 | 78410 | 127155
4 | 28:15.31 | 5:13.67 | 127156 | 150697
5 | 33:29.23 | 7:45.57 | 150698 | 185629
6 | 41:15.05 | 4:01.56 | 185630 | 203760
7 | 45:16.61 | 5:10.53 | 203761 | 227063
8 | 50:27.39 | 5:09.37 | 227064 | 250275
9 | 55:37.01 | 3:39.13 | 250276 | 266713
10 | 59:16.14 | 3:50.26 | 266714 | 283989
11 | 63:06.40 | 9:19.13 | 283990 | 325927

Track 1

Filename Y:\A U D I O RIP\01 – Amnios.wav

Pre-gap length 0:00:02.00

Peak level 97.7 %
Track quality 100.0 %
Test CRC F50480F1
Copy CRC F50480F1
Accurately ripped (confidence 1) [450B27DC]
Copy OK

Track 2

Filename Y:\A U D I O RIP\02 – Reborn To Expansion.wav

Peak level 96.4 %
Track quality 100.0 %
Test CRC 9FCABD6E
Copy CRC 9FCABD6E
Track not present in AccurateRip database
Copy OK

Track 3

Filename Y:\A U D I O RIP\03 – Connected Spirits.wav

Peak level 93.8 %
Track quality 100.0 %
Test CRC ADF95E9C
Copy CRC ADF95E9C
Cannot be verified as accurate (confidence 1) [1E20FB1E], AccurateRip returned [766F857C]
Copy OK

Track 4

Filename Y:\A U D I O RIP\04 – Three Circles.wav

Peak level 97.7 %
Track quality 100.0 %
Test CRC 8CE1B61F
Copy CRC 8CE1B61F
Cannot be verified as accurate (confidence 1) [382CD447], AccurateRip returned [9BAEAAAB]
Copy OK

Track 5

Filename Y:\A U D I O RIP\05 – Garden Of Revealed Flame.wav

Peak level 97.7 %
Track quality 100.0 %
Test CRC C5E6E617
Copy CRC C5E6E617
Cannot be verified as accurate (confidence 1) [9186810E], AccurateRip returned [95D7A24D]
Copy OK

Track 6

Filename Y:\A U D I O RIP\06 – Ruby For The Sun.wav

Peak level 94.1 %
Track quality 99.9 %
Test CRC 85DE167A
Copy CRC 85DE167A
Cannot be verified as accurate (confidence 1) [76881A84], AccurateRip returned [1123269D]
Copy OK

Track 7

Filename Y:\A U D I O RIP\07 – The Talisman.wav

Peak level 97.9 %
Track quality 100.0 %
Test CRC DB37408E
Copy CRC DB37408E
Cannot be verified as accurate (confidence 1) [A151342E], AccurateRip returned [E31DE49D]
Copy OK

Track 8

Filename Y:\A U D I O RIP\08 – The Endless Knot.wav

Peak level 88.7 %
Track quality 99.9 %
Test CRC 200E2E66
Copy CRC 200E2E66
Cannot be verified as accurate (confidence 1) [1F3D40DE], AccurateRip returned [D27CF56C]
Copy OK

Track 9

Filename Y:\A U D I O RIP\09 – Wind's Gallery.wav

Peak level 97.7 %
Track quality 99.9 %
Test CRC 47568A3D
Copy CRC 47568A3D
Cannot be verified as accurate (confidence 1) [F3743A5D], AccurateRip returned [F50D8274]
Copy OK

Track 10

Filename Y:\A U D I O RIP\10 – Pearl For The Moon.wav

Peak level 80.1 %
Track quality 100.0 %
Test CRC 29856434
Copy CRC 29856434
Cannot be verified as accurate (confidence 1) [82B6141B], AccurateRip returned [EF86CD0C]
Copy OK

Track 11

Filename Y:\A U D I O RIP\11 – Cellular Memory.wav

Peak level 68.6 %
Track quality 99.9 %
Test CRC 3A9115BD
Copy CRC 3A9115BD
Cannot be verified as accurate (confidence 1) [230DFBFD], AccurateRip returned [1D9E5F46]
Copy OK

1 track(s) accurately ripped
9 track(s) could not be verified as accurate
1 track(s) not present in the AccurateRip database

Some tracks could not be verified as accurate

No errors occurred

End of status report


REM GENRE Electronic
REM DATE 2006
REM DISCID AA10F90B
REM COMMENT "ExactAudioCopy v0.99pb4"
PERFORMER "Max Corbacho"
TITLE "The Talisman"
FILE "01 – Amnios.wav" WAVE
TRACK 01 AUDIO
TITLE "Amnios"
PERFORMER "Max Corbacho"
INDEX 01 00:00:00
FILE "02 – Reborn To Expansion.wav" WAVE
TRACK 02 AUDIO
TITLE "Reborn To Expansion"
PERFORMER "Max Corbacho"
INDEX 01 00:00:00
FILE "03 – Connected Spirits.wav" WAVE
TRACK 03 AUDIO
TITLE "Connected Spirits"
PERFORMER "Max Corbacho"
INDEX 01 00:00:00
FILE "04 – Three Circles.wav" WAVE
TRACK 04 AUDIO
TITLE "Three Circles"
PERFORMER "Max Corbacho"
INDEX 01 00:00:00
FILE "05 – Garden Of Revealed Flame.wav" WAVE
TRACK 05 AUDIO
TITLE "Garden Of Revealed Flame"
PERFORMER "Max Corbacho"
INDEX 01 00:00:00
FILE "06 – Ruby For The Sun.wav" WAVE
TRACK 06 AUDIO
TITLE "Ruby For The Sun"
PERFORMER "Max Corbacho"
INDEX 01 00:00:00
FILE "07 – The Talisman.wav" WAVE
TRACK 07 AUDIO
TITLE "The Talisman"
PERFORMER "Max Corbacho"
INDEX 01 00:00:00
FILE "08 – The Endless Knot.wav" WAVE
TRACK 08 AUDIO
TITLE "The Endless Knot"
PERFORMER "Max Corbacho"
INDEX 01 00:00:00
FILE "09 – Wind's Gallery.wav" WAVE
TRACK 09 AUDIO
TITLE "Wind's Gallery"
PERFORMER "Max Corbacho"
INDEX 01 00:00:00
FILE "10 – Pearl For The Moon.wav" WAVE
TRACK 10 AUDIO
TITLE "Pearl For The Moon"
PERFORMER "Max Corbacho"
INDEX 01 00:00:00
FILE "11 – Cellular Memory.wav" WAVE
TRACK 11 AUDIO
TITLE "Cellular Memory"
PERFORMER "Max Corbacho"
INDEX 01 00:00:00

Год выпуска: 2008
Продолжительность: 01:13:16
Треклист:

01. This Luminous Space (06:04)
02. Act Of Light (08:28)
03. The Great Breath (12:52)
04. No Day Nor Night (08:16)
05. No Form Nor Colour (15:52)
06. Temple Of Dissolution (12:21)
07. Pure Being (09:23)

Exact Audio Copy V0.99 prebeta 5 from 4. May 2009

EAC extraction logfile from 18. June 2010, 2:37

Max Corbacho / BreathStream

Used drive : PLEXTOR DVDR PX-800A Adapter: 0 ID: 0

Read mode : Secure
Utilize accurate stream : Yes
Defeat audio cache : Yes
Make use of C2 pointers : No

Read offset correction : 48
Overread into Lead-In and Lead-Out : No
Fill up missing offset samples with silence : Yes
Delete leading and trailing silent blocks : No
Null samples used in CRC calculations : Yes
Used interface : Native Win32 interface for Win NT & 2000
Gap handling : Appended to previous track

Used output format : User Defined Encoder
Selected bitrate : 1024 kBit/s
Quality : High
Add ID3 tag : No
Command line compressor : C:\Program Files\Exact Audio Copy\FLAC\FLAC.EXE
Additional command line options : -6 -V -T "ARTIST=%a" -T "TITLE=%t" -T "ALBUM=%g" -T "DATE=%y" -T "TRACKNUMBER=%n" -T "GENRE=%m" -T "COMMENT=%e" %s -o %d

TOC of the extracted CD

Track | Start | Length | Start sector | End sector
---------------------------------------------------------
1 | 0:00.00 | 6:04.13 | 0 | 27312
2 | 6:04.13 | 8:28.12 | 27313 | 65424
3 | 14:32.25 | 12:51.48 | 65425 | 123297
4 | 27:23.73 | 8:15.46 | 123298 | 160468
5 | 35:39.44 | 15:52.15 | 160469 | 231883
6 | 51:31.59 | 12:21.28 | 231884 | 287486
7 | 63:53.12 | 9:22.57 | 287487 | 329693

Track 1

Filename C:\Temp\01. Max Corbacho - This Luminous Space.wav

Pre-gap length 0:00:02.00

Peak level 73.0 %
Track quality 100.0 %
Test CRC CFDAB544
Copy CRC CFDAB544
Accurately ripped (confidence 1) [CBB5FE78]
Copy OK

Track 2

Filename C:\Temp\02. Max Corbacho - Act of Light.wav

Peak level 93.6 %
Track quality 100.0 %
Test CRC AA4D863B
Copy CRC AA4D863B
Accurately ripped (confidence 1) [5E4AD217]
Copy OK

Track 3

Filename C:\Temp\03. Max Corbacho - The Great Breath.wav

Peak level 97.7 %
Track quality 100.0 %
Test CRC F4C18C24
Copy CRC F4C18C24
Accurately ripped (confidence 1) [364C5D0E]
Copy OK

Track 4

Filename C:\Temp\04. Max Corbacho - No Day nor Night.wav

Peak level 70.8 %
Track quality 100.0 %
Test CRC B1C3E3FE
Copy CRC B1C3E3FE
Accurately ripped (confidence 1) [05665B6E]
Copy OK

Track 5

Filename C:\Temp\05. Max Corbacho - No Form nor Colour.wav

Peak level 80.8 %
Track quality 100.0 %
Test CRC DBAEAB40
Copy CRC DBAEAB40
Accurately ripped (confidence 1) [B3737325]
Copy OK

Track 6

Filename C:\Temp\06. Max Corbacho - Temple of Dissolution.wav

Peak level 95.8 %
Track quality 100.0 %
Test CRC F7E9FE84
Copy CRC F7E9FE84
Accurately ripped (confidence 1) [9B28CBA2]
Copy OK

Track 7

Filename C:\Temp\07. Max Corbacho - Pure Being.wav

Peak level 88.3 %
Track quality 100.0 %
Test CRC B4A0E84C
Copy CRC B4A0E84C
Accurately ripped (confidence 1) [B3D2A6F1]
Copy OK

All tracks accurately ripped

No errors occurred

End of status report


REM GENRE Ambient
REM DATE 2008
REM DISCID 5E112B07
REM COMMENT "ExactAudioCopy v0.99pb5"
PERFORMER "Max Corbacho"
TITLE "BreathStream"
FILE "01. Max Corbacho - This Luminous Space.wav" WAVE
TRACK 01 AUDIO
TITLE "This Luminous Space"
PERFORMER "Max Corbacho"
INDEX 01 00:00:00
FILE "02. Max Corbacho - Act of Light.wav" WAVE
TRACK 02 AUDIO
TITLE "Act of Light"
PERFORMER "Max Corbacho"
INDEX 01 00:00:00
FILE "03. Max Corbacho - The Great Breath.wav" WAVE
TRACK 03 AUDIO
TITLE "The Great Breath"
PERFORMER "Max Corbacho"
INDEX 01 00:00:00
FILE "04. Max Corbacho - No Day nor Night.wav" WAVE
TRACK 04 AUDIO
TITLE "No Day nor Night"
PERFORMER "Max Corbacho"
INDEX 01 00:00:00
FILE "05. Max Corbacho - No Form nor Colour.wav" WAVE
TRACK 05 AUDIO
TITLE "No Form nor Colour"
PERFORMER "Max Corbacho"
INDEX 01 00:00:00
FILE "06. Max Corbacho - Temple of Dissolution.wav" WAVE
TRACK 06 AUDIO
TITLE "Temple of Dissolution"
PERFORMER "Max Corbacho"
INDEX 01 00:00:00
FILE "07. Max Corbacho - Pure Being.wav" WAVE
TRACK 07 AUDIO
TITLE "Pure Being"
PERFORMER "Max Corbacho"
INDEX 01 00:00:00

Год выпуска: 2009
Продолжительность: 01:13:52
Треклист:

01. Light-Matrix Portal (14:13)
02. Narthex (12:32)
03. Pillar Ascension (16:24)
04. Transept Sapphire Glass (04:49)
05. Choir Ecstasy (04:54)
06. Keystone Meditation (02:52)
07. Mirabilis Structura (18:08)

Exact Audio Copy V0.99 prebeta 5 from 4. May 2009

EAC extraction logfile from 26. February 2010, 11:52

Max Corbacho / Ars Lucis

Used drive : Optiarc DVD RW AD-7203S Adapter: 3 ID: 0

Read mode : Secure
Utilize accurate stream : Yes
Defeat audio cache : Yes
Make use of C2 pointers : No

Read offset correction : 48
Overread into Lead-In and Lead-Out : No
Fill up missing offset samples with silence : Yes
Delete leading and trailing silent blocks : No
Null samples used in CRC calculations : Yes
Used interface : Native Win32 interface for Win NT & 2000
Gap handling : Appended to previous track

Used output format : User Defined Encoder
Selected bitrate : 896 kBit/s
Quality : High
Add ID3 tag : No
Command line compressor : C:\Program Files\Exact Audio Copy\Flac\flac.exe
Additional command line options : -V -8 -T "artist=%a" -T "title=%t" -T "album=%g" -T "date=%y" -T "tracknumber=%n" -T "genre=%m" %s

TOC of the extracted CD

Track | Start | Length | Start sector | End sector
---------------------------------------------------------
1 | 0:00.00 | 14:13.19 | 0 | 63993
2 | 14:13.19 | 12:32.17 | 63994 | 120410
3 | 26:45.36 | 16:23.73 | 120411 | 194208
4 | 43:09.34 | 4:48.42 | 194209 | 215850
5 | 47:58.01 | 4:54.26 | 215851 | 237926
6 | 52:52.27 | 2:51.58 | 237927 | 250809
7 | 55:44.10 | 18:07.43 | 250810 | 332377

Track 1

Filename L:\lossless\my CD\_Ambient\Max Corbacho - Ars Lucis (2009)\01. Max Corbacho - Light-Matrix Portal.wav

Pre-gap length 0:00:02.00

Peak level 89.1 %
Track quality 100.0 %
Test CRC 7E679C17
Copy CRC 7E679C17
Accurately ripped (confidence 1) [3CEFD621]
Copy OK

Track 2

Filename L:\lossless\my CD\_Ambient\Max Corbacho - Ars Lucis (2009)\02. Max Corbacho - Narthex.wav

Pre-gap length 0:00:02.00

Peak level 70.5 %
Track quality 100.0 %
Test CRC 65A7B323
Copy CRC 65A7B323
Accurately ripped (confidence 1) [91ABEBF9]
Copy OK

Track 3

Filename L:\lossless\my CD\_Ambient\Max Corbacho - Ars Lucis (2009)\03. Max Corbacho - Pillar Ascension.wav

Pre-gap length 0:00:02.00

Peak level 72.1 %
Track quality 100.0 %
Test CRC 6AB3162F
Copy CRC 6AB3162F
Accurately ripped (confidence 1) [B9820A7F]
Copy OK

Track 4

Filename L:\lossless\my CD\_Ambient\Max Corbacho - Ars Lucis (2009)\04. Max Corbacho - Transept Sapphire Glass.wav

Pre-gap length 0:00:02.00

Peak level 90.6 %
Track quality 99.9 %
Test CRC 98D8253C
Copy CRC 98D8253C
Accurately ripped (confidence 1) [949FFE01]
Copy OK

Track 5

Filename L:\lossless\my CD\_Ambient\Max Corbacho - Ars Lucis (2009)\05. Max Corbacho - Choir Ecstasy.wav

Pre-gap length 0:00:02.00

Peak level 70.6 %
Track quality 100.0 %
Test CRC C46434FC
Copy CRC C46434FC
Accurately ripped (confidence 1) [E1AE8259]
Copy OK

Track 6

Filename L:\lossless\my CD\_Ambient\Max Corbacho - Ars Lucis (2009)\06. Max Corbacho - Keystone Meditation.wav

Pre-gap length 0:00:02.00

Peak level 89.7 %
Track quality 100.0 %
Test CRC 9D22D23E
Copy CRC 9D22D23E
Accurately ripped (confidence 1) [38255D5F]
Copy OK

Track 7

Filename L:\lossless\my CD\_Ambient\Max Corbacho - Ars Lucis (2009)\07. Max Corbacho - Mirabilis Structura.wav

Pre-gap length 0:00:02.00

Peak level 97.7 %
Track quality 100.0 %
Test CRC 8397272F
Copy CRC 8397272F
Accurately ripped (confidence 1) [9CE684E2]
Copy OK

All tracks accurately ripped

No errors occurred

End of status report


REM GENRE Ambient
REM DATE 2009
REM DISCID 64114F07
REM COMMENT "ExactAudioCopy v0.99pb5"
REM GENRE Ambient
PERFORMER "Max Corbacho"
TITLE "Ars Lucis"
FILE "01. Max Corbacho - Light-Matrix Portal.wav" WAVE
TRACK 1 AUDIO
TITLE "Light-Matrix Portal"
PERFORMER "Max Corbacho"
INDEX 01 00:00:00
FILE "02. Max Corbacho - Narthex.wav" WAVE
TRACK 2 AUDIO
TITLE Narthex
PERFORMER "Max Corbacho"
INDEX 01 00:00:00
FILE "03. Max Corbacho - Pillar Ascension.wav" WAVE
TRACK 3 AUDIO
TITLE "Pillar Ascension"
PERFORMER "Max Corbacho"
INDEX 01 00:00:00
FILE "04. Max Corbacho - Transept Sapphire Glass.wav" WAVE
TRACK 4 AUDIO
TITLE "Transept Sapphire Glass"
PERFORMER "Max Corbacho"
INDEX 01 00:00:00
FILE "05. Max Corbacho - Choir Ecstasy.wav" WAVE
TRACK 5 AUDIO
TITLE "Choir Ecstasy"
PERFORMER "Max Corbacho"
INDEX 01 00:00:00
FILE "06. Max Corbacho - Keystone Meditation.wav" WAVE
TRACK 6 AUDIO
TITLE "Keystone Meditation"
PERFORMER "Max Corbacho"
INDEX 01 00:00:00
FILE "07. Max Corbacho - Mirabilis Structura.wav" WAVE
TRACK 7 AUDIO
TITLE "Mirabilis Structura"
PERFORMER "Max Corbacho"
INDEX 01 00:00:00
Год выпуска: 2010
Продолжительность: 01:13:57
Треклист:

01. On The Edge Of Forever (27:56)
02. Deep Time (28:24)
03. Carboniferous Dawn (17:37)

-----------------------

DON'T MODIFY THIS FILE

-----------------------

PERFORMER: auCDtect Task Manager, ver. 1.6.0 RC1 build 1.6.0.1
Copyright (c) 2008-2010 y-soft. All rights reserved
http://y-soft.org

ANALYZER: auCDtect: CD records authenticity detector, version 0.8.2
Copyright (c) 2004 Oleg Berngardt. All rights reserved.
Copyright (c) 2004 Alexander Djourik. All rights reserved.

FILE: 03. Carboniferous Dawn.flac
Size: 98791096 Hash: 461F1982A32EE9B6C440009883E0B05D Accuracy: -m0
Conclusion: CDDA 43%
Signature: 5B8A8FBB3679EE9A69FD934903FB983991CD9054
FILE: 02. Deep Time.flac
Size: 158386551 Hash: 297B38F97E637E9F28CE9285142714F8 Accuracy: -m0
Conclusion: MPEG 92%
Signature: B5EEF79C1478376797614B321D5E4947EB9908DE
FILE: 01. On The Edge Of Forever.flac
Size: 149598887 Hash: 00D0D207188092F528F2531574C85FE0 Accuracy: -m0
Conclusion: CDDA 62%
Signature: 264FBF0CCF3C8B4ECF9BF4E80E43CA2D94930E09

Год выпуска: 2011
Продолжительность: 01:07:04
Треклист:

01. Earthflow Trance (07:20)
02. Sky Resonance (06:07)
03. Third Exposure (05:42)
04. One True Light (16:12)
05. Mandala (12:33)
06. After Dream (05:54)
07. Slow Thunder (13:16)

-----------------------

DON'T MODIFY THIS FILE

-----------------------

PERFORMER: auCDtect Task Manager, ver. 1.6.0 RC1 build 1.6.0.1
Copyright (c) 2008-2010 y-soft. All rights reserved
http://y-soft.org

ANALYZER: auCDtect: CD records authenticity detector, version 0.8.2
Copyright (c) 2004 Oleg Berngardt. All rights reserved.
Copyright (c) 2004 Alexander Djourik. All rights reserved.

FILE: 07. Slow Thunder.flac
Size: 58601270 Hash: 36295903B82A7D9A2EF95D1A60741CF3 Accuracy: -m0
Conclusion: CDDA 100%
Signature: 0CF98C054EE20D12F67F507E99350220AFCEA58C
FILE: 06. After Dream.flac
Size: 31559769 Hash: 4D76DD39C443ECC5C9C0C8A8377F45C4 Accuracy: -m0
Conclusion: CDDA 43%
Signature: B77EA4DBFCC05D4739A4D650FEF2EF429577432A
FILE: 05. Mandala.flac
Size: 71465647 Hash: 55BDDBC06676883EEAD656C4C7A81217 Accuracy: -m0
Conclusion: CDDA 100%
Signature: EA89B145F363EB0F8B82D2152FC83C9FD02170DB
FILE: 04. One True Light.flac
Size: 81684352 Hash: B952F870209453CE8520F9C3C36F0CDC Accuracy: -m0
Conclusion: CDDA 92%
Signature: 373FF452D3E3BD01F4BAC9CB54FE643E7BF3B07E
FILE: 03. Third Exposure.flac
Size: 37165953 Hash: 41E156CF35D4475816CB3F0C986CE8DD Accuracy: -m0
Conclusion: MPEG 80%
Signature: 621612C6FECCE2E2FC2ED86FEC49A1C95590BDB4
FILE: 02. Sky Resonance.flac
Size: 30411437 Hash: 081AF0F7645051AA153F6A7EF72777C5 Accuracy: -m0
Conclusion: CDDA 100%
Signature: 1FB349BDC03E0CB9C0E4ED6CE6427C3437464D3C
FILE: 01. Earthflow Trance.flac
Size: 37253001 Hash: B24E4B0D8B905B1A2831FF97A540C9EF Accuracy: -m0
Conclusion: CDDA 100%
Signature: 4C8153BBA9DA0D7E7F1BD5A042A496ED883B9AA4

Год выпуска: 2011
Продолжительность: 00:58:48
Треклист:

01. BIOMA (58:48)

-----------------------

DON'T MODIFY THIS FILE

-----------------------

PERFORMER: auCDtect Task Manager, ver. 1.6.0 RC1 build 1.6.0.1
Copyright (c) 2008-2010 y-soft. All rights reserved
http://y-soft.org

ANALYZER: auCDtect: CD records authenticity detector, version 0.8.2
Copyright (c) 2004 Oleg Berngardt. All rights reserved.
Copyright (c) 2004 Alexander Djourik. All rights reserved.

FILE: 01. BIOMA.flac
Size: 287240781 Hash: A632AA09DE6675EB41D71774D2177772 Accuracy: -m0
Conclusion: CDDA 100%
Signature: CF49A87CE0E36E62C6F7CEDE34A6383E71D96FD5

Год выпуска: 2012
Продолжительность: 01:13:59+01:13:59
Треклист:

CD1
01. Nest Of Tempests (10:39)
02. Surface Thought (04:38)
03. Web Of Eyes (06:46)
04. Offshore Currents (07:29)
05. A Place Of Discovery (02:34)
06. The Endless Flame (08:18)
07. Tidal Memory (04:04)
08. Towards The Bottomless Sea (29:31)

CD2
01. Dive In (02:15)
02. Shoreless Ocean (12:47)
03. Awaken Inside (15:51)
04. Deep Blue Home (08:55)
05. Islandless Expanse (10:02)
06. Deeper Into The Ocean (24:09)

Exact Audio Copy V1.0 beta 1 from 15. November 2010

EAC extraction logfile from 28. December 2012, 10:26

The Ocean Inside CD 1 / Max Corbacho

Used drive : Optiarc DVD RW AD-7243S Adapter: 3 ID: 1

Read mode : Secure
Utilize accurate stream : Yes
Defeat audio cache : Yes
Make use of C2 pointers : No

Read offset correction : 48
Overread into Lead-In and Lead-Out : No
Fill up missing offset samples with silence : Yes
Delete leading and trailing silent blocks : No
Null samples used in CRC calculations : Yes
Used interface : Native Win32 interface for Win NT & 2000
Gap handling : Appended to previous track

Used output format : User Defined Encoder
Selected bitrate : 896 kBit/s
Quality : High
Add ID3 tag : No
Command line compressor : C:\Program Files (x86)\Exact Audio Copy\FLAC\FLAC.EXE
Additional command line options : -6 -V -T "ARTIST=%a" -T "TITLE=%t" -T "ALBUM=%g" -T "DATE=%y" -T "TRACKNUMBER=%n" -T "GENRE=%m" -T "COMMENT=%e" %j--picture="%i"%j %s -o %d

TOC of the extracted CD

Track | Start | Length | Start sector | End sector
---------------------------------------------------------
1 | 0:00.00 | 10:39.08 | 0 | 47932
2 | 10:39.08 | 4:37.61 | 47933 | 68768
3 | 15:16.69 | 6:45.52 | 68769 | 99195
4 | 22:02.46 | 7:28.60 | 99196 | 132855
5 | 29:31.31 | 2:33.47 | 132856 | 144377
6 | 32:05.03 | 8:18.29 | 144378 | 181756
7 | 40:23.32 | 4:03.40 | 181757 | 200021
8 | 44:26.72 | 29:31.36 | 200022 | 332882

Track 1

Filename C:\Temp\01. The Ocean Inside CD 1 - Nest of Tempests.wav

Pre-gap length 0:00:02.00

Peak level 97.7 %
Extraction speed 2.8 X
Track quality 100.0 %
Test CRC 64C4A1BF
Copy CRC 64C4A1BF
Track not present in AccurateRip database
Copy OK

Track 2

Filename C:\Temp\02. The Ocean Inside CD 1 - Surface Thought.wav

Peak level 90.6 %
Extraction speed 3.1 X
Track quality 100.0 %
Test CRC 31DE5A89
Copy CRC 31DE5A89
Track not present in AccurateRip database
Copy OK

Track 3

Filename C:\Temp\03. The Ocean Inside CD 1 - Web of Eyes.wav

Peak level 97.6 %
Extraction speed 3.5 X
Track quality 100.0 %
Test CRC 790C7301
Copy CRC 790C7301
Track not present in AccurateRip database
Copy OK

Track 4

Filename C:\Temp\04. The Ocean Inside CD 1 - Offshore Currents.wav

Peak level 81.7 %
Extraction speed 3.9 X
Track quality 100.0 %
Test CRC F89FCCD1
Copy CRC F89FCCD1
Track not present in AccurateRip database
Copy OK

Track 5

Filename C:\Temp\05. The Ocean Inside CD 1 - A Place of Discovery.wav

Peak level 51.0 %
Extraction speed 3.5 X
Track quality 100.0 %
Test CRC AE28CCE5
Copy CRC AE28CCE5
Track not present in AccurateRip database
Copy OK

Track 6

Filename C:\Temp\06. The Ocean Inside CD 1 - The Endless Flame.wav

Peak level 97.6 %
Extraction speed 4.4 X
Track quality 100.0 %
Test CRC DDFE2F0A
Copy CRC DDFE2F0A
Track not present in AccurateRip database
Copy OK

Track 7

Filename C:\Temp\07. The Ocean Inside CD 1 - Tidal Memory.wav

Peak level 95.5 %
Extraction speed 4.3 X
Track quality 100.0 %
Test CRC BC2FEC9E
Copy CRC BC2FEC9E
Track not present in AccurateRip database
Copy OK

Track 8

Filename C:\Temp\08. The Ocean Inside CD 1 - Towards the Bottomless Sea.wav

Peak level 81.0 %
Extraction speed 5.5 X
Track quality 100.0 %
Test CRC 43F8A8FF
Copy CRC 43F8A8FF
Track not present in AccurateRip database
Copy OK

None of the tracks are present in the AccurateRip database

No errors occurred

End of status report

==== Log checksum B490041D4FD2212DBB7200E7C6B988714B8E4A9E07C9D67EB9FB9026018D17A9 ====
-------------------------------------------------------------------------------------------------------------------------

Exact Audio Copy V1.0 beta 1 from 15. November 2010

EAC extraction logfile from 31. December 2012, 9:58

Max Corbacho / The Ocean Inside CD 2

Used drive : Optiarc DVD RW AD-7243S Adapter: 3 ID: 1

Read mode : Secure
Utilize accurate stream : Yes
Defeat audio cache : Yes
Make use of C2 pointers : No

Read offset correction : 48
Overread into Lead-In and Lead-Out : No
Fill up missing offset samples with silence : Yes
Delete leading and trailing silent blocks : No
Null samples used in CRC calculations : Yes
Used interface : Native Win32 interface for Win NT & 2000
Gap handling : Appended to previous track

Used output format : User Defined Encoder
Selected bitrate : 896 kBit/s
Quality : High
Add ID3 tag : No
Command line compressor : C:\Program Files (x86)\Exact Audio Copy\FLAC\FLAC.EXE
Additional command line options : -6 -V -T "ARTIST=%a" -T "TITLE=%t" -T "ALBUM=%g" -T "DATE=%y" -T "TRACKNUMBER=%n" -T "GENRE=%m" -T "COMMENT=%e" %j--picture="%i"%j %s -o %d

TOC of the extracted CD

Track | Start | Length | Start sector | End sector
---------------------------------------------------------
1 | 0:00.00 | 2:14.65 | 0 | 10114
2 | 2:14.65 | 12:46.61 | 10115 | 67625
3 | 15:01.51 | 15:50.68 | 67626 | 138943
4 | 30:52.44 | 8:54.53 | 138944 | 179046
5 | 39:47.22 | 10:01.44 | 179047 | 224165
6 | 49:48.66 | 24:08.43 | 224166 | 332808

Track 1

Filename C:\Temp\01. Max Corbacho - Dive In.wav

Pre-gap length 0:00:02.00

Peak level 90.0 %
Extraction speed 2.1 X
Track quality 100.0 %
Test CRC E45269B4
Copy CRC E45269B4
Track not present in AccurateRip database
Copy OK

Track 2

Filename C:\Temp\02. Max Corbacho - Shoreless Ocean.wav

Peak level 97.7 %
Extraction speed 3.1 X
Track quality 100.0 %
Test CRC CA8D25B0
Copy CRC CA8D25B0
Track not present in AccurateRip database
Copy OK

Track 3

Filename C:\Temp\03. Max Corbacho - Awaken Inside.wav

Peak level 95.7 %
Extraction speed 3.9 X
Track quality 100.0 %
Test CRC 82527421
Copy CRC 82527421
Track not present in AccurateRip database
Copy OK

Track 4

Filename C:\Temp\04. Max Corbacho - Deep Blue Home.wav

Peak level 87.9 %
Extraction speed 4.4 X
Track quality 100.0 %
Test CRC 44EFC23D
Copy CRC 44EFC23D
Track not present in AccurateRip database
Copy OK

Track 5

Filename C:\Temp\05. Max Corbacho - Islandless Expanse.wav

Peak level 97.7 %
Extraction speed 4.8 X
Track quality 100.0 %
Test CRC 16EF4A7D
Copy CRC 16EF4A7D
Track not present in AccurateRip database
Copy OK

Track 6

Filename C:\Temp\06. Max Corbacho - Deeper into the Ocean.wav

Peak level 97.0 %
Extraction speed 5.6 X
Track quality 100.0 %
Test CRC C8958153
Copy CRC C8958153
Track not present in AccurateRip database
Copy OK

None of the tracks are present in the AccurateRip database

No errors occurred

End of status report

==== Log checksum D19CE7BB829172BC99BA1A6F0426B15BF9ABCC23C136FDF0DAC70DB3F15B5CF3 ====


REM GENRE Ambient
REM DATE 2012
REM DISCID 71115608
REM COMMENT "ExactAudioCopy v1.0b1"
REM DISCNUMBER 1
PERFORMER "Max Corbacho"
TITLE "The Ocean Inside"
FILE "01. Max Corbacho - Nest of Tempests.flac" WAVE
TRACK 1 AUDIO
TITLE "Nest Of Tempests"
PERFORMER "Max Corbacho"
INDEX 01 00:00:00
FILE "02. Max Corbacho - Surface Thought.flac" WAVE
TRACK 2 AUDIO
TITLE "Surface Thought"
PERFORMER "Max Corbacho"
INDEX 01 00:00:00
FILE "03. Max Corbacho - Web of Eyes.flac" WAVE
TRACK 3 AUDIO
TITLE "Web Of Eyes"
PERFORMER "Max Corbacho"
INDEX 01 00:00:00
FILE "04. Max Corbacho - Offshore Currents.flac" WAVE
TRACK 4 AUDIO
TITLE "Offshore Currents"
PERFORMER "Max Corbacho"
INDEX 01 00:00:00
FILE "05. Max Corbacho - A Place of Discovery.flac" WAVE
TRACK 5 AUDIO
TITLE "A Place Of Discovery"
PERFORMER "Max Corbacho"
INDEX 01 00:00:00
FILE "06. Max Corbacho - The Endless Flame.flac" WAVE
TRACK 6 AUDIO
TITLE "The Endless Flame"
PERFORMER "Max Corbacho"
INDEX 01 00:00:00
FILE "07. Max Corbacho - Tidal Memory.flac" WAVE
TRACK 7 AUDIO
TITLE "Tidal Memory"
PERFORMER "Max Corbacho"
INDEX 01 00:00:00
FILE "08. Max Corbacho - Towards the Bottomless Sea.flac" WAVE
TRACK 8 AUDIO
TITLE "Towards The Bottomless Sea"
PERFORMER "Max Corbacho"
INDEX 01 00:00:00

-----------------------------------------------------------------------

REM GENRE Ambient
REM DATE 2012
REM DISCID 54115506
REM COMMENT "ExactAudioCopy v1.0b1"
REM DISCNUMBER 2
PERFORMER "Max Corbacho"
TITLE "The Ocean Inside"
FILE "01. Max Corbacho - Dive In.flac" WAVE
TRACK 1 AUDIO
TITLE "Dive In"
PERFORMER "Max Corbacho"
INDEX 01 00:00:00
FILE "02. Max Corbacho - Shoreless Ocean.flac" WAVE
TRACK 2 AUDIO
TITLE "Shoreless Ocean"
PERFORMER "Max Corbacho"
INDEX 01 00:00:00
FILE "03. Max Corbacho - Awaken Inside.flac" WAVE
TRACK 3 AUDIO
TITLE "Awaken Inside"
PERFORMER "Max Corbacho"
INDEX 01 00:00:00
FILE "04. Max Corbacho - Deep Blue Home.flac" WAVE
TRACK 4 AUDIO
TITLE "Deep Blue Home"
PERFORMER "Max Corbacho"
INDEX 01 00:00:00
FILE "05. Max Corbacho - Islandless Expanse.flac" WAVE
TRACK 5 AUDIO
TITLE "Islandless Expanse"
PERFORMER "Max Corbacho"
INDEX 01 00:00:00
FILE "06. Max Corbacho - Deeper into the Ocean.flac" WAVE
TRACK 6 AUDIO
TITLE "Deeper Into The Ocean"
PERFORMER "Max Corbacho"
INDEX 01 00:00:00

Год выпуска: 2013
Продолжительность: 00:59:58
Треклист:

01. Cosmic Traveler (59:58)

-----------------------

DON'T MODIFY THIS FILE

-----------------------

PERFORMER: auCDtect Task Manager, ver. 1.6.0 RC1 build 1.6.0.1
Copyright (c) 2008-2010 y-soft. All rights reserved
http://y-soft.org

ANALYZER: auCDtect: CD records authenticity detector, version 0.8.2
Copyright (c) 2004 Oleg Berngardt. All rights reserved.
Copyright (c) 2004 Alexander Djourik. All rights reserved.

FILE: 01. Cosmic Traveler.flac
Size: 307501701 Hash: 6E57AF4B203F02959E9A1BEE80AA3691 Accuracy: -m0
Conclusion: CDDA 99%
Signature: 236BBACA9E46FDA1F6E27962144B22B055105188

Год выпуска: 2015
Продолжительность: 01:13:30
Треклист:

01. The Flowing Path (16:37)
02. Towards The Center (12:09)
03. Earth Womb (07:56)
04. Wave Of Reflection (05:47)
05. Wonderheart (16:24)
06. Shaping The Endless (14:37)

-----------------------

DON'T MODIFY THIS FILE

-----------------------

PERFORMER: auCDtect Task Manager, ver. 1.6.0 RC1 build 1.6.0.1
Copyright (c) 2008-2010 y-soft. All rights reserved
http://y-soft.org

ANALYZER: auCDtect: CD records authenticity detector, version 0.8.2
Copyright (c) 2004 Oleg Berngardt. All rights reserved.
Copyright (c) 2004 Alexander Djourik. All rights reserved.

FILE: 06. Shaping The Endless.flac
Size: 63731755 Hash: AB8AC6F2C5C068A6ED24EC82FB62077A Accuracy: -m0
Conclusion: CDDA 100%
Signature: 0A648A85CF8157A6917C0ABD857F8BE50BC6950A
FILE: 05. Wonderheart.flac
Size: 77270216 Hash: 3AA077116C498E302F12E1F2DF75A9AA Accuracy: -m0
Conclusion: CDDA 99%
Signature: A4DDC58E7AA0B1EE8BD7244D79BE7CCC1A9F9635
FILE: 04. Wave Of Reflection.flac
Size: 28594391 Hash: 5475C625DC2A05ACA4CCCA7194E26294 Accuracy: -m0
Conclusion: CDDA 100%
Signature: 99C2AE9DB2D73389E8A6C6F6DD897749C18839C7
FILE: 03. Earth Womb.flac
Size: 27059360 Hash: 75A560C2726F68DD84DA3F8355BFDE86 Accuracy: -m0
Conclusion: CDDA 100%
Signature: 243A36051B12ED876981DB12DAAFCCF244E996DB
FILE: 02. Towards The Center.flac
Size: 58409240 Hash: 788402A3BA2F46693DF0447338AE436F Accuracy: -m0
Conclusion: CDDA 100%
Signature: C33AE5B9BDE9DD001895C7C7EAE54B8C7BADB9F4
FILE: 01. The Flowing Path.flac
Size: 81722568 Hash: BF001A2BAFD6AAF1187E4D20EA9D786A Accuracy: -m0
Conclusion: CDDA 100%
Signature: 2EC8C25838409A7353AAFE9E76169C6D7E105683

Год выпуска: 2017
Продолжительность: 01:13:52
Треклист:

01. Future Terrain (01:13:52)

-----------------------

DON'T MODIFY THIS FILE

-----------------------

PERFORMER: auCDtect Task Manager, ver. 1.6.0 RC1 build 1.6.0.1
Copyright (c) 2008-2010 y-soft. All rights reserved
http://y-soft.org

ANALYZER: auCDtect: CD records authenticity detector, version 0.8.2
Copyright (c) 2004 Oleg Berngardt. All rights reserved.
Copyright (c) 2004 Alexander Djourik. All rights reserved.

FILE: 01. Future Terrain.flac
Size: 220050728 Hash: 690E9E00D9AB6372B440FC91CFC44FC6 Accuracy: -m0
Conclusion: CDDA 100%
Signature: 3A3A2C489CFECE74E591BED6CDA220CA1FEEA2DF

Год выпуска: 2017
Продолжительность: 01:13:37
Треклист:

01. Dark Sky Opening (52:49)
02. Stellar Time (11:44)
03. Ghost Of The Moon (09:04)

-----------------------

DON'T MODIFY THIS FILE

-----------------------

PERFORMER: auCDtect Task Manager, ver. 1.6.0 RC1 build 1.6.0.1
Copyright (c) 2008-2010 y-soft. All rights reserved
http://y-soft.org

ANALYZER: auCDtect: CD records authenticity detector, version 0.8.2
Copyright (c) 2004 Oleg Berngardt. All rights reserved.
Copyright (c) 2004 Alexander Djourik. All rights reserved.

FILE: 03. Ghost Of The Moon.flac
Size: 29249801 Hash: 60EF3913E7A2D191869BCB9C2C0BC996 Accuracy: -m0
Conclusion: CDDA 100%
Signature: C2E5AA59546016436597A75D5EE7C84695C8D144
FILE: 02. Stellar Time.flac
Size: 37962018 Hash: D6395BFFE540829557B0CB59B772D27E Accuracy: -m0
Conclusion: CDDA 100%
Signature: E1A278BA0037173221191A1908074FD33A67968A
FILE: 01. Dark Sky Opening.flac
Size: 216143184 Hash: B266CFFBA9A4E98B67DCD767893373C4 Accuracy: -m0
Conclusion: CDDA 100%
Signature: 1CD7BAD92388391D464E1484F19850980FF015E1

Время раздачи: 12/7
[NNMClub.to]_Max Corbacho FLAC.torrent
 Торрент: Платиновая раздача  Зарегистрирован
 
Скачать


Примагнититься
 Зарегистрирован:   25 Май 2017 01:37:20
 Размер:   5,78 GB  (
 Рейтинг:    (Голосов: 5)
 Поблагодарили:   30
 Проверка:   Оформление проверено модератором 25 Май 2017 01:38:29
Как cкачать  ·  Как раздать  ·  Правильно оформить  ·  Поднять ратио!  
Показать сообщения:   
Начать новую тему   Ответить на тему    Торрент-трекер NNM-Club -> Electronic -> Easy listening (Lossless) Часовой пояс: GMT + 3
Страница 1 из 1