Интеллигентный торрент-трекер
canvas not supported
Нас вместе: 4 311 864

Shingeki no Bahamut: Virgin Soul / Rage of Bahamut: Virgin Soul / Ярость Бахамута: Непорочная душа [2017, TV, 17 из 24] WEB-DL 720p Raw+Rus


 
 
RSS
Начать новую тему   Ответить на тему    Торрент-трекер NNM-Club -> Аниме с озвучкой -> Онгоинги с озвучкой
Автор Сообщение
Ampho_DnB ®
RG Аниме
 
Стаж: 5 лет 7 мес.
Сообщений: 4215
Ratio: 181,084
Поблагодарили: 68870
100%
Откуда: дует?
roody.gif
Shingeki no Bahamut: Virgin Soul / Rage of Bahamut: Virgin Soul / Ярость Бахамута: Непорочная душа
Жанр: приключения, фэнтези
Тип: TV-сериал
Продолжительность: 17 из 24 эпизодов по 25 минут
Выпуск: c 08.04.2017
Сценарий: Ойси Сидзука
Режиссер: Сато Кэйити
Производство: MAPPA
Информационные ссылки: AniDB || World Art || MAL || ANN
Релиз подготовлен студией AniDub
  • Тип озвучки: Многоголосая, закадровая

Описание:
Прошло уже две тысячи лет с тех пор, как люди запечатали Бахамута, и теперь они живут в мире и спокойствии. Фаваро Леоне - охотник за головами, а по совместительству весельчак и бабник. Все деньги, полученные от заданий, он пропивает в кабаках. И вот, в один из таких моментов, его бахвальство подслушала таинственная женщина Амира, потребовавшая сопроводить её в некий Хельем. В процессе оказалось, что женщина является демоном, да и вдобавок носит с собой один из ключей от печати Бахамута. Таких приключений наш герой уж точно не ожидал!

Множество испытаний ждало их на пути в Хельем. Амира, а точнее её крайне любопытная ноша, была словно приманкой для всякой разной нечисти. Печать Бахамута сохранить не удалось, и Амира погибает, чтобы у воинов появилась возможность одолеть чудовище. С момента последних действий прошло 10 лет. Фаваро стал обладателем механической ноги и вернулся к работе охотника за головами. Но он знает, что Бахамут побеждён не до конца, и в любой момент может вернуться.
Качество: WEB-DLRip | Энкод: HorribleSubs
Язык озвучки: Японский и Русский
Формат: MKV
Видео: x264, 1280x720, ~1 776 kbps, 23.976 fps
Аудио: AAC, 128 kbps, 44.1 kHz, 2 ch
Аудио: AAC, 192 kbps, 48.0 kHz, 2 ch
Субтитры: ASS, Встроенные, Полные | Надписи
Переводчик: Zottig | Редактор: AleX_MytH
01. Красный дракон
02. Обездоленные
03. Сближение
04. Порождающая пламя
05. Непокорные
06. Праздник в Анатэ
07. День Победы
08. День поражения
09. Всё по-старому
10. Какой она была
11. Объявление войны
12. Большой побег
13. Прощай, оружие!
14. Возвращение домой
15. Город богов. Часть 1
16. Город богов. Часть 2
17. Непорочная душа

18. Непобедимый
General
Unique ID : 227028023398922527642263097008012001976 (0xAACC01C0C8BFD622AE086D0F162E02B8)
Complete name : Shingeki no Bahamut - Virgin Soul [AD Studio]\Shingeki no Bahamut - Virgin Soul - 01 (1280x720 x264 AAC).mkv
Format : Matroska
Format version : Version 4 / Version 2
File size : 422 MiB
Duration : 24 min 10 s
Overall bit rate mode : Variable
Overall bit rate : 2 441 kb/s
Encoded date : UTC 2017-05-16 16:33:16
Writing application : mkvmerge v11.0.0 ('Alive') 64bit
Writing library : libebml v1.3.4 + libmatroska v1.4.5
Attachments : times.ttf / timesbd.ttf / trebuc.ttf / trebucbd.ttf

Video
ID : 1
Format : AVC
Format/Info : Advanced Video Codec
Format profile : High@L3.1
Format settings, CABAC : Yes
Format settings, ReFrames : 5 frames
Codec ID : V_MPEG4/ISO/AVC
Duration : 24 min 10 s
Bit rate mode : Variable
Bit rate : 2 108 kb/s
Maximum bit rate : 4 500 kb/s
Width : 1 280 pixels
Height : 720 pixels
Display aspect ratio : 16:9
Frame rate mode : Constant
Frame rate : 23.976 (24000/1001) FPS
Color space : YUV
Chroma subsampling : 4:2:0
Bit depth : 8 bits
Scan type : Progressive
Bits/(Pixel*Frame) : 0.095
Stream size : 364 MiB (86%)
Language : Japanese
Default : Yes
Forced : No
Color range : Limited
Color primaries : BT.709
Transfer characteristics : BT.709
Matrix coefficients : BT.709

Audio #1
ID : 2
Format : AAC
Format/Info : Advanced Audio Codec
Format profile : LC
Codec ID : A_AAC
Duration : 24 min 10 s
Bit rate : 192 kb/s
Channel(s) : 2 channels
Channel positions : Front: L R
Sampling rate : 48.0 kHz
Frame rate : 46.875 FPS (1024 spf)
Compression mode : Lossy
Stream size : 32.7 MiB (8%)
Language : Russian
Default : Yes
Forced : No

Audio #2
ID : 3
Format : AAC
Format/Info : Advanced Audio Codec
Format profile : LC
Codec ID : A_AAC
Duration : 24 min 10 s
Bit rate : 125 kb/s
Channel(s) : 2 channels
Channel positions : Front: L R
Sampling rate : 48.0 kHz
Frame rate : 46.875 FPS (1024 spf)
Compression mode : Lossy
Stream size : 21.7 MiB (5%)
Language : Japanese
Default : No
Forced : No

Text #1
ID : 4
Format : ASS
Codec ID : S_TEXT/ASS
Codec ID/Info : Advanced Sub Station Alpha
Duration : 23 min 59 s
Bit rate : 10 b/s
Count of elements : 13
Compression mode : Lossless
Stream size : 1.91 KiB (0%)
Title : Note
Language : Russian
Default : Yes
Forced : No

Text #2
ID : 5
Format : ASS
Codec ID : S_TEXT/ASS
Codec ID/Info : Advanced Sub Station Alpha
Duration : 23 min 59 s
Bit rate : 80 b/s
Count of elements : 205
Compression mode : Lossless
Stream size : 14.1 KiB (0%)
Title : Full
Language : Russian
Default : No
Forced : No


Время раздачи: До первых сидов
[NNM-Club.name]_Shingeki no Bahamut - Virgin Soul [AD Studio].torrent
 Торрент:   Зарегистрирован
 
Зарегистрируйтесь и скачайте торрент!
18,6 KB

Примагнититься
 Зарегистрирован:   04 Авг 2017 01:36:52
 Размер:   6,69 GB  (
 Рейтинг:   4,3 (Голосов: 17)
 Поблагодарили:   60
 Проверка:   Оформление проверено модератором 04 Авг 2017 10:23:30
Как cкачать  ·  Как раздать  ·  Правильно оформить  ·  Поднять ратио!  
Ampho_DnB ®
RG Аниме
 
Стаж: 5 лет 7 мес.
Сообщений: 4215
Ratio: 181,084
Поблагодарили: 68870
100%
Откуда: дует?
roody.gif
Торрент обновлен. Добавлены 8 и 9 серии.
Ampho_DnB ®
RG Аниме
 
Стаж: 5 лет 7 мес.
Сообщений: 4215
Ratio: 181,084
Поблагодарили: 68870
100%
Откуда: дует?
roody.gif
Торрент обновлен. Добавлена 10 серия.
Ampho_DnB ®
RG Аниме
 
Стаж: 5 лет 7 мес.
Сообщений: 4215
Ratio: 181,084
Поблагодарили: 68870
100%
Откуда: дует?
roody.gif
Торрент обновлен. Добавлена 11 серия.
Ampho_DnB ®
RG Аниме
 
Стаж: 5 лет 7 мес.
Сообщений: 4215
Ratio: 181,084
Поблагодарили: 68870
100%
Откуда: дует?
roody.gif
Торрент обновлен. Добавлены 12 и 13 серии.
Ampho_DnB ®
RG Аниме
 
Стаж: 5 лет 7 мес.
Сообщений: 4215
Ratio: 181,084
Поблагодарили: 68870
100%
Откуда: дует?
roody.gif
Торрент обновлен. Добавлена 14 серия.
Ampho_DnB ®
RG Аниме
 
Стаж: 5 лет 7 мес.
Сообщений: 4215
Ratio: 181,084
Поблагодарили: 68870
100%
Откуда: дует?
roody.gif
Торрент обновлен. Добавлены 15-17 серии.
Показать сообщения:   
Начать новую тему   Ответить на тему    Торрент-трекер NNM-Club -> Аниме с озвучкой -> Онгоинги с озвучкой Часовой пояс: GMT + 3
Страница 1 из 1