Интеллигентный торрент-трекер
canvas not supported
Нас вместе: 4 311 663

Баллада о Кэйбле Хоге / The Ballad of Cable Hogue (1970) BDRip [H.264/1080p]


 
 
RSS
Начать новую тему   Ответить на тему    Торрент-трекер NNM-Club -> Классика кино и Старые фильмы до 90-х -> Зарубежная Классика (HD)
Автор Сообщение
chvv2463 ®
Стаж: 2 мес. 21 день
Сообщений: 4
Ratio: 284,764
Поблагодарили: 70
15.38%
Баллада о Кэйбле Хоге / The Ballad of Cable Hogue (1970) BDRip [H.264/1080p]
Производство: США
Жанр: Вестерн, Мелодрама, Комедия

Режиссер: Сэм Пекинпа
Актеры: Джейсон Робардс-Младший, Стелла Стивенс,Дэвид Уорнер, Строзер Мартин, Слим Пикенс, Л. К. Джоунс, Питер Уитни, Р. Дж. Армстронг, Джин Эванс, Уильям Мимс

Описание:
Кэйбл Хог — закоренелый неудачник. Двое его товарищей избавляются от него, бросив в пустыне без воды. Но предприимчивый Хог находит источник и организовывает платный оазис: с каждого, кто хотел напиться, он снимал плату — пять центов. Первый посетитель оказался хамом, и Хог убил его. Следующим посетителем был святой отец.


Возраст: 18+ (зрителям, достигшим 18 лет. запрещено для детей)
Рейтинг MPAA: R (лицам до 17 лет обязательно присутствие взрослого)

Продолжительность: 02:01:20
Качество видео: BDRip (1080p)
Перевод: Профессиональный (многоголосый закадровый)
Субтитры: Английский

Видео: AVC, 1920x1080, ~14 Mбит/сек
Аудио #1: Русский: AC3, 2 ch, 384 kbps
Аудио #2: Английский: DTS, 2 ch, 1509 kbps

[pre]
General
Unique ID : 216025665136477590188194253631388136099 (0xA285079C022EC493BA0CE0B6866832A3)
Complete name : The.Ballad.of.Cable.Hogue.1970.1080p.BDRip.X264.mkv
Format : Matroska
Format version : Version 4 / Version 2
File size : 13.4 GiB
Duration : 2 h 1 min
Overall bit rate : 15.9 Mb/s
Encoded date : UTC 2017-06-09 05:44:06
Writing application : mkvmerge v12.0.0 ('Trust / Lust') 64bit
Writing library : libebml v1.3.4 + libmatroska v1.4.5

Video
ID : 1
Format : AVC
Format/Info : Advanced Video Codec
Format profile : High@L4.1
Format settings, CABAC : Yes
Format settings, ReFrames : 4 frames
Codec ID : V_MPEG4/ISO/AVC
Duration : 2 h 1 min
Bit rate : 14.0 Mb/s
Width : 1 920 pixels
Height : 1 080 pixels
Display aspect ratio : 16:9
Frame rate mode : Constant
Frame rate : 23.976 (24000/1001) FPS
Color space : YUV
Chroma subsampling : 4:2:0
Bit depth : 8 bits
Scan type : Progressive
Bits/(Pixel*Frame) : 0.281
Stream size : 11.8 GiB (88%)
Writing library : x264 core 150 r2833 df79067
Encoding settings : cabac=1 / ref=4 / deblock=1:-3:-3 / analyse=0x3:0x113 / me=umh / subme=8 / psy=1 / psy_rd=1.12:0.00 / mixed_ref=1 / me_range=32 / chroma_me=1 / trellis=2 / 8x8dct=1 / cqm=0 / deadzone=21,11 / fast_pskip=1 / chroma_qp_offset=-2 / threads=24 / lookahead_threads=4 / sliced_threads=0 / nr=0 / decimate=1 / interlaced=0 / bluray_compat=0 / constrained_intra=0 / bframes=3 / b_pyramid=2 / b_adapt=2 / b_bias=0 / direct=3 / weightb=1 / open_gop=0 / weightp=2 / keyint=240 / keyint_min=24 / scenecut=40 / intra_refresh=0 / rc_lookahead=50 / rc=2pass / mbtree=1 / bitrate=13965 / ratetol=1.0 / qcomp=0.60 / qpmin=0 / qpmax=69 / qpstep=4 / cplxblur=20.0 / qblur=0.5 / ip_ratio=1.40 / aq=3:0.75
Default : Yes
Forced : No

Audio #1
ID : 2
Format : AC-3
Format/Info : Audio Coding 3
Format settings, Endianness : Big
Codec ID : A_AC3
Duration : 2 h 1 min
Bit rate mode : Constant
Bit rate : 384 kb/s
Channel(s) : 2 channels
Channel positions : Front: L R
Sampling rate : 48.0 kHz
Frame rate : 31.250 FPS (1536 spf)
Bit depth : 16 bits
Compression mode : Lossy
Delay relative to video : 500 ms
Stream size : 333 MiB (2%)
Title : MVO
Language : Russian
Service kind : Complete Main
Default : No
Forced : No

Audio #2
ID : 3
Format : DTS
Format/Info : Digital Theater Systems
Mode : 16
Format settings, Endianness : Big
Codec ID : A_DTS
Duration : 2 h 1 min
Bit rate mode : Constant
Bit rate : 1 509 kb/s
Channel(s) : 2 channels
Channel positions : Front: L R
Sampling rate : 48.0 kHz
Frame rate : 93.750 FPS (512 spf)
Bit depth : 24 bits
Compression mode : Lossy
Stream size : 1.28 GiB (10%)
Language : English
Default : Yes
Forced : No

Text #1
ID : 4
Format : UTF-8
Codec ID : S_TEXT/UTF8
Codec ID/Info : UTF-8 Plain Text
Duration : 1 h 58 min
Bit rate : 50 b/s
Count of elements : 1763
Stream size : 43.7 KiB (0%)
Language : English
Default : No
Forced : No

Text #2
ID : 5
Format : UTF-8
Codec ID : S_TEXT/UTF8
Codec ID/Info : UTF-8 Plain Text
Duration : 1 h 59 min
Bit rate : 52 b/s
Count of elements : 1877
Stream size : 45.9 KiB (0%)
Title : SDH
Language : English
Default : No
Forced : No

Menu
00:00:00.000 : en:00:00:00.000
00:04:39.196 : en:00:04:39.196
00:08:41.563 : en:00:08:41.563
00:12:10.229 : en:00:12:10.229
00:15:42.942 : en:00:15:42.942
00:18:10.506 : en:00:18:10.506
00:23:48.886 : en:00:23:48.886
00:26:13.906 : en:00:26:13.906
00:32:17.435 : en:00:32:17.435
00:35:49.230 : en:00:35:49.230
00:39:48.720 : en:00:39:48.720
00:46:23.489 : en:00:46:23.489
00:51:43.600 : en:00:51:43.600
00:58:25.001 : en:00:58:25.001
01:03:10.996 : en:01:03:10.996
01:05:54.868 : en:01:05:54.868
01:08:13.589 : en:01:08:13.589
01:13:04.046 : en:01:13:04.046
01:18:17.359 : en:01:18:17.359
01:21:18.540 : en:01:21:18.540
01:27:12.144 : en:01:27:12.144
01:31:45.667 : en:01:31:45.667
01:35:25.637 : en:01:35:25.637
01:35:43.947 : en:01:35:43.947
01:39:30.631 : en:01:39:30.631
01:41:58.696 : en:01:41:58.696
01:44:40.524 : en:01:44:40.524
01:48:44.017 : en:01:48:44.017
01:53:14.955 : en:01:53:14.955
01:58:16.840 : en:01:58:16.840
02:00:18.002 : en:02:00:18.002[pre]
Скриншоты:


Все одноименные релизы в Клубе


Время раздачи: 24/7 (до 3-5 скачиваний)
[NNM-Club.name]_The.Ballad.of.Cable.Hogue.1970.1080p.BDRip.X264.mkv.torrent
 Торрент: Платиновая раздача  Зарегистрирован
 
Скачать


Примагнититься
 Зарегистрирован:   09 Июн 2017 09:11:35
 Размер:   13,4 GB  (
 Рейтинг:   4,7 (Голосов: 17)
 Поблагодарили:   70
 Проверка:   Оформление проверено модератором 10 Июн 2017 08:11:43
Как cкачать  ·  Как раздать  ·  Правильно оформить  ·  Поднять ратио!  
zivXP
Стаж: 3 года
Сообщений: 56
Ratio: 6,216
18.2%
Можно поменьше размер файла сделать?
chvv2463 ®
Стаж: 2 мес. 21 день
Сообщений: 4
Ratio: 284,764
Поблагодарили: 70
15.38%
zivXP писал(а): Перейти к сообщению
Можно поменьше размер файла сделать?
:да: - во сколько раз?
SubМарина
Uploader 200+
Стаж: 6 лет 10 мес.
Сообщений: 652
Ratio: 1908,778
Раздал: 227,2 TB
100%
Откуда: Севас​топол​ь​
ussr.gif
На 2-ом скрине, если сбрить бородёнку, стопудово получится Кевин Сорбо (Геракл,Андромеда)!!! :смех:
Релиз - Шикарный, качество - изумительное! Спасибо Огромное!

_________________
maldo​ror66​6​
Стаж: 7 лет 2 мес.
Сообщений: 1466
Ratio: 41,954
100%
Пекинпа крут
Показать сообщения:   
Начать новую тему   Ответить на тему    Торрент-трекер NNM-Club -> Классика кино и Старые фильмы до 90-х -> Зарубежная Классика (HD) Часовой пояс: GMT + 3
Страница 1 из 1