Интеллигентный торрент-трекер
canvas not supported
Нас вместе: 4 293 717

Re:Creators / Воссоздающие [2017, TV, 22 ep] HDTV 720p Raw+Rus


 
 
RSS
Начать новую тему   Ответить на тему    Торрент-трекер NNM-Club -> Аниме с озвучкой -> Аниме с озвучкой (HD)
Автор Сообщение
Ampho_DnB ®
RG Аниме
 
Стаж: 5 лет 9 мес.
Сообщений: 2561
Ratio: 180,382
Поблагодарили: 70785
100%
Откуда: дует?
roody.gif
Re:Creators / Воссоздающие
Жанр: приключения, фэнтези
Тип: TV-сериал
Продолжительность: 22 эпизодов по 25 минут
Выпуск: c 08.04.2017 по 16.09.2017
Автор: Хироэ Рэй
Режиссер: Аоки Эй
Производство: Troyca
Информационные ссылки: AniDB || World Art || MAL || ANN
Релиз подготовлен группой AniFilm
  • Перевод: SovetRomantica
  • Озвучивание: Octav, Delete, Kreol, Rokana, Castiel, Баяна
  • Тайминг и работа со звуком: Vladislav

Описание:
Человечество, подобно своему творцу, всегда стремилось к созиданию. Каждый день люди создают что-то новое, стараясь этим сделать свою жизнь и жизни других легче, а также попутно поглаживая своё самолюбие и делая свою личность значимее. Но чем самолюбивее человек, тем больше ему хочется обладать безграничной властью над тем, что создано людьми. Они подчиняют других себе, упиваясь своей значимостью и, порой, переходя все возможные границы. Конечно, такое поведение мало кому придётся по нраву, кроме них самих.

Но есть и другой, более мирный способ иметь возможность делать со своими творениями всё, что душе угодно. Такой привилегией обладают писатели. На страницах своих произведений они рождают персонажей, решают, как их творения будут жить, и убивают их по своей прихоти. Писатели в таком случае подобны богам, и судьбы придуманных ими людей целиком и полностью в их руках. Но представим на минутку, что все герои, появившиеся от росчерка пера, обрели жизнь на самом деле, только в отдельном от нас мире…
Качество: HDTVRip | Энкод: Leopard-Raws
Язык озвучки: Японский и Русский
Формат: MKV
Видео: x264, 1280x720, ~2 815 kbps, 23.976 fps
Аудио: AAC, 192 kbps, 48.0 kHz, 2 ch
Аудио: AAC, 192 kbps, 48.0 kHz, 2 ch
Субтитры: ASS, Встроенные, Полные | Надписи
Переводчик: Бульбазавр | Редактор: SYMRAK, Alex Drake
01. Я буду помнить всё, что со мной произошло.
02. ... это было не смешно.
03. Не беспокойся о том, что скажут другие. Будь собой.
04. В таком случае я хочу защитить тех, кого он любил
05. Давайте устроим мальчишник?
06. Тебе одной известно, где справедливость лжет.
07. Я не хочу совершать ошибки, ради людей из моей истории.
08. Я выбрала эту жизнь.
09. Ты должен сделать выбор и быть решительным
10. Мы знаем как ты думаешь и как сражаешься!
11. В отличие от тебя мы не можем выбрать свой путь.
12. Будь отчаянным и нарисуй что-нибудь очаровательное.
13. Непредсказуемая история, которая неизвестно к чему ведёт.
14. Так больно и от бесполезности хочется плакать, но мне всё равно весело
15. Это прекрасно! Она не могла быть более прекрасной!
16. Всё начинается здесь, не так ли?
17. Капли дождя стучат по крыше.
18. Пока мы живы, мы будем по полной наслаждаться жизнью.
19. История продолжается до тех пор, пока кто-то верит в моё существование.
20. Кто-то получает силу творения, и его страсть материализуется.
21. Мир лишь для нас двоих.
22. Воссоздающие
General
Unique ID : 253491302931607252671506185668128239981 (0xBEB4A62B23F7FCBDA6AD031FC6C9716D)
Complete name : Re-Creators [AniFilm]\[AniFilm] Re-Creators 01 [TV] [HDTVRip 720p x264] [MVO].mkv
Format : Matroska
Format version : Version 4 / Version 2
File size : 548 MiB
Duration : 23 min 59 s
Overall bit rate : 3 193 kb/s
Encoded date : UTC 2017-04-13 09:32:39
Writing application : mkvmerge v9.9.0 ('Pick Up') 64bit
Writing library : libebml v1.3.4 + libmatroska v1.4.5

Video
ID : 1
Format : AVC
Format/Info : Advanced Video Codec
Format profile : High@L4.1
Format settings, CABAC : Yes
Format settings, ReFrames : 4 frames
Codec ID : V_MPEG4/ISO/AVC
Duration : 23 min 59 s
Bit rate : 2 815 kb/s
Width : 1 280 pixels
Height : 720 pixels
Display aspect ratio : 16:9
Frame rate mode : Constant
Frame rate : 23.976 (24000/1001) FPS
Color space : YUV
Chroma subsampling : 4:2:0
Bit depth : 8 bits
Scan type : Progressive
Bits/(Pixel*Frame) : 0.127
Stream size : 483 MiB (88%)
Writing library : x264 core 129 r2245+729M 1a52e03
Encoding settings : cabac=1 / ref=4 / deblock=1:1:-1 / analyse=0x3:0x113 / me=umh / subme=9 / psy=1 / fade_compensate=0.00 / psy_rd=1.00:0.00 / mixed_ref=1 / me_range=24 / chroma_me=1 / trellis=2 / 8x8dct=1 / cqm=0 / deadzone=21,11 / fast_pskip=1 / chroma_qp_offset=-2 / threads=8 / lookahead_threads=1 / sliced_threads=0 / nr=0 / decimate=1 / interlaced=0 / bluray_compat=0 / constrained_intra=0 / fgo=0 / bframes=9 / b_pyramid=2 / b_adapt=2 / b_bias=0 / direct=1 / weightb=1 / open_gop=0 / weightp=2 / keyint=240 / keyint_min=24 / scenecut=40 / intra_refresh=0 / rc=crf / mbtree=0 / crf=17.5 / qcomp=0.72 / qpmin=0 / qpmax=69 / qpstep=4 / ip_ratio=1.40 / pb_ratio=1.30 / aq=1:0.85
Default : Yes
Forced : No
Color range : Limited
Color primaries : BT.709
Transfer characteristics : BT.709
Matrix coefficients : BT.709

Audio #1
ID : 2
Format : AAC
Format/Info : Advanced Audio Codec
Format profile : LC
Codec ID : A_AAC
Duration : 23 min 59 s
Bit rate : 185 kb/s
Channel(s) : 2 channels
Channel positions : Front: L R
Sampling rate : 48.0 kHz
Frame rate : 46.875 FPS (1024 spf)
Compression mode : Lossy
Stream size : 31.7 MiB (6%)
Title : MVO | AniFilm
Language : Russian
Default : Yes
Forced : Yes

Audio #2
ID : 3
Format : AAC
Format/Info : Advanced Audio Codec
Format profile : LC
Codec ID : A_AAC
Duration : 23 min 59 s
Bit rate : 192 kb/s
Channel(s) : 2 channels
Channel positions : Front: L R
Sampling rate : 48.0 kHz
Frame rate : 46.875 FPS (1024 spf)
Compression mode : Lossy
Stream size : 32.6 MiB (6%)
Title : Original
Language : Japanese
Default : No
Forced : No

Text #1
ID : 4
Format : ASS
Codec ID : S_TEXT/ASS
Codec ID/Info : Advanced Sub Station Alpha
Duration : 23 min 12 s
Bit rate : 3 b/s
Count of elements : 6
Compression mode : Lossless
Stream size : 670 Bytes (0%)
Title : Надписи
Language : Russian
Default : Yes
Forced : Yes

Text #2
ID : 5
Format : ASS
Codec ID : S_TEXT/ASS
Codec ID/Info : Advanced Sub Station Alpha
Duration : 23 min 16 s
Bit rate : 116 b/s
Count of elements : 264
Compression mode : Lossless
Stream size : 19.9 KiB (0%)
Title : Полный перевод
Language : Russian
Default : No
Forced : No

Menu
00:00:00.000 : ru:Начало
00:19:36.783 : ru:Эндинг
00:21:34.632 : ru:Анонс


Время раздачи: До первых сидов
[NNM-Club.name]_Re-Creators [AniFilm].torrent
 Торрент:   Зарегистрирован
 
Зарегистрируйтесь и скачайте торрент!
28,5 KB

Примагнититься
 Зарегистрирован:   23 Сен 2017 01:35:28
 Размер:   10,5 GB  (
 Рейтинг:   4,1 (Голосов: 35)
 Поблагодарили:   122
 Проверка:   Оформление проверено модератором 23 Сен 2017 01:42:21
Как cкачать  ·  Как раздать  ·  Правильно оформить  ·  Поднять ратио!  
oszs
Стаж: 5 лет 5 мес.
Сообщений: 266
Ratio: 95,059
42.62%
Озвучка русская хорошего качества, жаль что раздача не 1080п но уже как-то привычно что ранние раздачи идут в 720п.

_________________
Верёвки и мыла на всех хватит.
Ampho_DnB ®
RG Аниме
 
Стаж: 5 лет 9 мес.
Сообщений: 2561
Ratio: 180,382
Поблагодарили: 70785
100%
Откуда: дует?
roody.gif
oszs писал(а): Перейти к сообщению
Озвучка русская хорошего качества, жаль что раздача не 1080п но уже как-то привычно что ранние раздачи идут в 720п.

На онгоинги 1080р не слишком популярны, да и сидировать мало кто хочет.
oszs
Стаж: 5 лет 5 мес.
Сообщений: 266
Ratio: 95,059
42.62%
Ampho_DnB писал(а): Перейти к сообщению
На онгоинги 1080р не слишком популярны, да и сидировать мало кто хочет.
Если выкладывать на нескольких треккерах то с сидами будет проще. Предлагаю обратить внимание на rутрekер. Более того, контент заслуживающий похвалы, вроде этого, сидируют куда охотнее. Если вы замечали что у вас с чувством вкуса всё в порядке, можно ориентироваться так же и на этот критерий.

По поводу Re:Creators, отличный баланс сюжета и рисовки, а главное нет школы, школой многие аниме страдают на корню и от этого возникает школьный осадок, который постепенно откладывается как известь на нагревательных элементах.

_________________
Верёвки и мыла на всех хватит.
Respe​cktra​tor13​
Стаж: 7 лет 3 мес.
Сообщений: 39
Ratio: 3,819
Раздал: 323 GB
100%
wild_hogs.gif
Создал себе тян.
@
Не дала. (с) :D

Автору благодарность. А когда, примерно, ожидать следующие две серии?

_________________
Cogito ergo sum
Ampho_DnB ®
RG Аниме
 
Стаж: 5 лет 9 мес.
Сообщений: 2561
Ratio: 180,382
Поблагодарили: 70785
100%
Откуда: дует?
roody.gif
Торрент обновлен. Добавлена 22 серия.
Релиз завершен.
Показать сообщения:   
Начать новую тему   Ответить на тему    Торрент-трекер NNM-Club -> Аниме с озвучкой -> Аниме с озвучкой (HD) Часовой пояс: GMT + 3
Страница 1 из 1