Интеллигентный торрент-трекер
canvas not supported
Нас вместе: 4 294 409

Гектор Мукомол - Погружение (2002) [FLAC|Lossless|image + .cue] <Ambient>


 
 
RSS
Начать новую тему   Ответить на тему    Торрент-трекер NNM-Club -> Electronic -> Easy listening (Lossless)
Автор Сообщение
krokradio ®
RG Music
Uploaders, Реставратор
 
Стаж: 4 года
Сообщений: 740
Ratio: 402,953
Раздал: 43,67 TB
Поблагодарили: 17767
100%
Откуда: Оттуда
nnm-club.gif
Гектор Мукомол - Погружение (2002)
Жанр: Ambient
Издание: Not On Label (Геннадий Мельник) - GM CD 001
Продолжительность: 01:02:43
Наличие сканов в раздаче: Да
Источник (релизер): krokradio
Ссылка: Discogs

Кодек: FLAC
Битрейт: Lossless
Тип рипа: image + .cue

Треклист:
01. Глубина (10:11)
02. Долина Любви (13:13)
03. Лабиринт (6:18)
04. Колыбельная (9:21)
05. Погружение (16:35)
06. Дорога Домой (7:15)
Video. Дорога Домой (7:20)
В раздаче присутствует видеоматериал. Клип на композицию "Дорога домой".
Общее
Полное имя : F:\krokradio\Гектор Мукомол - Погружение [NNMClub]\Дорога Домой.avi
Формат : AVI
Формат/Информация : Audio Video Interleave
Размер файла : 66,9 Мбайт
Продолжительность : 7 м. 20 с.
Общий поток : 1275 Кбит/сек
Библиотека кодирования : VirtualDub build 13870/release

Видео
Идентификатор : 0
Формат : MPEG-4 Visual
Параметр BVOP формата : Да
Параметр QPel формата : Нет
Параметр GMC формата : Без точки перехода
Параметр матрицы формата : Default (H.263)
Идентификатор кодека : DIVX
Идентификатор кодека/Информация : Project Mayo
Идентификатор кодека/Подсказка : DivX 4
Продолжительность : 7 м. 20 с.
Битрейт : 1210 Кбит/сек
Ширина : 384 пикселя
Высота : 288 пикселей
Соотношение сторон : 4:3
Частота кадров : 25,000 кадров/сек
Цветовое пространство : YUV
Субдискретизация насыщенности : 4:2:0
Битовая глубина : 8 бит
Тип развёртки : Прогрессивная
Метод сжатия : С потерями
Бит/(Пиксели*Кадры) : 0.438
Размер потока : 63,4 Мбайт (95%)

Аудио
Идентификатор : 1
Формат : MPEG Audio
Версия формата : Version 2
Профиль формата : Layer 3
Режим : Joint stereo
Расширение режима : Intensity Stereo + MS Stereo
Идентификатор кодека : 55
Идентификатор кодека/Подсказка : MP3
Продолжительность : 7 м. 20 с.
Вид битрейта : Постоянный
Битрейт : 56,0 Кбит/сек
Каналы : 2 канала
Частота : 22,05 КГц
Метод сжатия : С потерями
Размер потока : 2,92 Мбайт (4%)
Выравнивание : Разделение по промежуткам
Продолжительность промежутка : 40 мс. (1,00 видеокадр)
Время предзагрузки промежутка : 463 мс.



Поглощение/вытеснение
Только с согласия релизера

kudzin
Gektor Mukomol - Pogruzhenie [NNMClub].torrent
 Торрент: Платиновая раздача  Зарегистрирован
 
Скачать


Примагнититься
 Зарегистрирован:   27 Июн 2017 15:33:17
 Размер:   338 MB  (
 Рейтинг:    (Голосов: 6)
 Поблагодарили:   35
 Проверка:   Оформление проверено модератором 29 Июн 2017 17:46:25
Как cкачать  ·  Как раздать  ·  Правильно оформить  ·  Поднять ратио!  

_________________
Свои рипы не покидаю. Только форс-мажоры.
Сидирую Instrumental, Rap, Hip-hop, RnB, Reggae (ВЕСЬ) и Alternative, Punk (Lossless)
P.S. Приму в подарок небольшой островок в районе Мальдив или Кариб. Обещаю пальмы не срезать.
Показать сообщения:   
Начать новую тему   Ответить на тему    Торрент-трекер NNM-Club -> Electronic -> Easy listening (Lossless) Часовой пояс: GMT + 3
Страница 1 из 1