Интеллигентный торрент-трекер
canvas not supported
Нас вместе: 4 220 283

Kakegurui / Маньяки ставок [2017, TV, 12 ep] HDTV 720p Raw+Rus


 
 
RSS
Начать новую тему   Ответить на тему    Торрент-трекер NNM-Club -> Аниме с озвучкой -> Аниме с озвучкой (HD)
Автор Сообщение
Ampho_DnB ®
RG Аниме
Uploader 100+
 
Стаж: 6 лет
Сообщений: 2832
Ratio: 200,797
Поблагодарили: 73463
100%
Откуда: дует?
roody.gif
Kakegurui / Маньяки ставок
Жанр: драма, мистика, психология, школа, сёнен
Тип: TV-сериал
Продолжительность: 12 эпизодов по 25 минут
Выпуск: c 01.07.2017 по 23.09.2017
Автор: Кавамото Хомура
Снято по манге: Kakegurui
Режиссер: Хаяси Юйтиро
Производство: MAPPA
Информационные ссылки: AniDB || World Art || MAL || ANN
Релиз подготовлен студией Kansai
  • Тип озвучки: Многоголосая, закадровая

Описание:
В подавляющем большинстве школ, если вас увидят с игральными картами в руках, то как минимум по голове не погладят, а может даже попадёте на разбирательство к директору. В частной академии Хяккао дела обстоят по-другому. Причём с первого взгляда не скажешь, ведь это старинная школа, да и учатся здесь непростые детки, а из исключительно влиятельных семей. Но вместо традиций и высококлассного обучения учащимся предлагается блеснуть не академическими знаниями, а умением просчитывать, предугадывать и выигрывать.

Помочь в выявлении таких навыков призваны как раз азартные игры. На победу во многом влияет сумма твоих взносов в студсовет, которая даёт преимущество. Если ты выигрываешь, значит ты на коне. А проигравших ожидает жестокое обращение и тирания со стороны победителей. Сопротивление бесполезно, иначе ситуация станет ещё хуже. Джабами Юмеко - новая ученица этой академии, но не похоже, чтобы она была напугана такой иерархией. Наоборот, настрой у неё боевой. Кажется, в академии Хяккао грядут сильные изменения!
Качество: HDTVRip | Энкод: Ohys-Raws
Язык озвучки: Японский и Русский
Формат: MKV
Видео: x264, 1280x720, ~1 761 kbps, 23.976 fps
Аудио: AAC, 192 kbps, 48.0 kHz, 2 ch
Аудио: AAC, 192 kbps, 48.0 kHz, 2 ch
01. A Woman Named Yumeko Jabami
02. A Boring Woman
03. Slit-Eyed Woman
04. The Woman Who Became a House Pet
05. The Woman Who Became Human
06. Tempting Woman
07. Refusing Women
08. Love-Dancing Woman
09. The Dreaming Woman
10. Selective Woman
11. The Woman Who Bets Her Life
12. Gambling Woman
General
Unique ID : 177345339274722318156334207992882780260 (0x856B784E082152EA853378C7C68FD864)
Complete name : Kakegurui [KANSAI]\[KANSAI] Kakegurui - 01 [720p].mkv
Format : Matroska
Format version : Version 4 / Version 2
File size : 379 MiB
Duration : 24 min 30 s
Overall bit rate : 2 163 kb/s
Encoded date : UTC 2017-07-17 20:56:12
Writing application : mkvmerge v13.0.0 ('The Juggler') 64bit
Writing library : libebml v1.3.4 + libmatroska v1.4.5

Video
ID : 1
Format : AVC
Format/Info : Advanced Video Codec
Format profile : Main@L4.1
Format settings, CABAC : Yes
Format settings, RefFrames : 4 frames
Codec ID : V_MPEG4/ISO/AVC
Duration : 24 min 29 s
Bit rate : 1 761 kb/s
Width : 1 280 pixels
Height : 720 pixels
Display aspect ratio : 16:9
Frame rate mode : Constant
Frame rate : 23.976 (24000/1001) FPS
Color space : YUV
Chroma subsampling : 4:2:0
Bit depth : 8 bits
Scan type : Progressive
Bits/(Pixel*Frame) : 0.080
Stream size : 309 MiB (81%)
Writing library : x264 core 150 r2833+58 090e24f t_mod_Custom [8-bit@all X86_64]
Encoding settings : cabac=1 / ref=3 / deblock=1:0:0 / analyse=0x1:0x111 / me=hex / subme=7 / psy=1 / fade_compensate=0.00 / psy_rd=1.00:0.00 / mixed_ref=1 / me_range=16 / chroma_me=1 / trellis=1 / 8x8dct=0 / cqm=0 / deadzone=21,11 / fast_pskip=1 / chroma_qp_offset=-2 / threads=12 / lookahead_threads=2 / sliced_threads=0 / nr=0 / decimate=1 / interlaced=0 / bluray_compat=0 / constrained_intra=0 / fgo=0 / bframes=3 / b_pyramid=2 / b_adapt=1 / b_bias=0 / direct=1 / weightb=1 / open_gop=0 / weightp=2 / keyint=240 / keyint_min=1 / scenecut=40 / intra_refresh=0 / rc_lookahead=40 / rc=crf / mbtree=1 / crf=20.0000 / qcomp=0.60 / qpmin=0:0:0 / qpmax=69:69:69 / qpstep=4 / ip_ratio=1.40 / aq=1:1.50 / aq-sensitivity=10.00 / aq-factor=1.00:1.00:1.00 / aq2=0 / aq3=0
Language : Japanese
Default : Yes
Forced : No
Color range : Limited
Color primaries : BT.709
Transfer characteristics : BT.709
Matrix coefficients : BT.709

Audio #1
ID : 2
Format : AAC
Format/Info : Advanced Audio Codec
Format profile : LC
Codec ID : A_AAC
Duration : 24 min 30 s
Bit rate : 192 kb/s
Channel(s) : 2 channels
Channel positions : Front: L R
Sampling rate : 48.0 kHz
Frame rate : 46.875 FPS (1024 SPF)
Compression mode : Lossy
Delay relative to video : -83 ms
Stream size : 33.2 MiB (9%)
Language : Russian
Default : Yes
Forced : No

Audio #2
ID : 3
Format : AAC
Format/Info : Advanced Audio Codec
Format profile : LC
Codec ID : A_AAC
Duration : 24 min 30 s
Bit rate : 209 kb/s
Channel(s) : 2 channels
Channel positions : Front: L R
Sampling rate : 48.0 kHz
Frame rate : 46.875 FPS (1024 SPF)
Compression mode : Lossy
Delay relative to video : -83 ms
Stream size : 36.7 MiB (10%)
Language : Japanese
Default : No
Forced : No


Время раздачи: До первых сидов
[NNM-Club.name]_Kakegurui [KANSAI].torrent
 Торрент: Платиновая раздача  Зарегистрирован
 
Скачать


Примагнититься
 Зарегистрирован:   28 Сен 2017 23:21:34
 Размер:   4,83 GB  (
 Рейтинг:   4,3 (Голосов: 32)
 Поблагодарили:   96
 Проверка:   Оформление проверено модератором 29 Сен 2017 00:26:59
Как cкачать  ·  Как раздать  ·  Правильно оформить  ·  Поднять ратио!  
Gepardus
Стаж: 6 лет 11 мес.
Сообщений: 277
Ratio: 6,996
100%
japan.gif
Что-то интересное наконец-то в кои-то веки. А то "весёлые" мальчики и девочки, так же как и размахивающие гигантскими топорами персонажи задолбали.
Gepardus
Стаж: 6 лет 11 мес.
Сообщений: 277
Ratio: 6,996
100%
japan.gif
Казуальные игры толком никто не понимает, поскольку официальная наука отрицает Дхарму и Дао.
А ещё, если все будут играть, то кто, собственно, будет на богачей/химеру/авторитетов горбатиться...
Матрица в конечном итоге всё равно всех поимеет. В гробу будем голыми лежать.
Ampho_DnB ®
RG Аниме
Uploader 100+
 
Стаж: 6 лет
Сообщений: 2832
Ratio: 200,797
Поблагодарили: 73463
100%
Откуда: дует?
roody.gif
Торрент обновлен. Добавлена 12 серия.
Релиз завершен.
Gepardus
Стаж: 6 лет 11 мес.
Сообщений: 277
Ratio: 6,996
100%
japan.gif
Вообще-то это про мошенников и месть. 8 серия на очереди, но понравилось.
Gepardus
Стаж: 6 лет 11 мес.
Сообщений: 277
Ratio: 6,996
100%
japan.gif
C 9-той серии не читаются файлы. Пришлось качать другой релиз.
А так вещь интересная и умная, практически за гранью моего понимания.
bzdsch
Стаж: 5 лет 9 мес.
Сообщений: 29
Ratio: 81,139
100%
honduras.gif
шикарно :)
спасибо за раздачу
Показать сообщения:   
Начать новую тему   Ответить на тему    Торрент-трекер NNM-Club -> Аниме с озвучкой -> Аниме с озвучкой (HD) Часовой пояс: GMT + 3
Страница 1 из 1