Интеллигентный торрент-трекер
canvas not supported
Нас вместе: 4 253 708

Knight's & Magic / Рыцари и Магия [2017, TV, 13 ep] WEB-DL 720p Raw+Rus


 
 
RSS
Начать новую тему   Ответить на тему    Торрент-трекер NNM-Club -> Аниме с озвучкой -> Аниме с озвучкой (HD)
Автор Сообщение
Ampho_DnB ®
RG Аниме
 
Стаж: 5 лет 10 мес.
Сообщений: 2733
Ratio: 182,116
Поблагодарили: 72315
100%
Откуда: дует?
roody.gif
Knight's & Magic / Рыцари и Магия
Жанр: приключения, фантастика, меха, школа
Тип: TV-сериал
Продолжительность: 13 эпизодов по 25 минут
Выпуск: c 02.07.2017 по 24.09.2017
Автор: Амадзакэ но Хисаго
Режиссер: Ямамото Юсукэ
Производство: 8bit
Информационные ссылки: AniDB || World Art || MAL || ANN
Релиз подготовлен студией Kansai
  • Тип озвучки: Многоголосая, закадровая

Описание:
Действие происходит в наше время и повествует нам о главном герое, 28 летнем отаку по имени Курата, который увлекается мехой и работает в издательстве . Однажды после окончания работы в офисе, по пути домой его сбивает машина и он перевоплощается в другом мире под именем Эрнести Эшевалье, также известного как Эру. В этом мире существует огромное человекоподобное оружие, известное как "Силуэт Рыцарей". Мечтая о том, чтобы пилотировать этих роботов, Эру, с друзьями детства, Аккидом Альтером и его сестрой Адельтроудом Альтером, стремятся стать пилотами этих Силуэтских Рыцарей.
Качество: WEB-DLRip | Энкод: Erai-raws
Язык озвучки: Японский и Русский
Формат: MKV
Видео: x264, 1280x720, ~2 855 kbps, 23.976 fps
Аудио: AAC, 128 kbps, 44.1 kHz, 2 ch
Аудио: AAC, 192 kbps, 48.0 kHz, 2 ch
01. Robots & Fantasy
02. Hero & Beast!
03. Scrap & Build
04. Light & Shadow
05. Hide & Seek
06. Trial & Error
07. New & Old
08. Secret & Quest
09. Force & Justice
10. War & Princess
11. Hit & Away
12. Knight & Dragon
13. Heaven & Earth
General
Unique ID : 205265718973615428564005967998689208360 (0x9A6CBD4E15FCD868A944D8FF04B3E828)
Complete name : Knight's & Magic [KANSAI]\[KANSAI] Knight's & Magic - 01 [720p].mkv
Format : Matroska
Format version : Version 4 / Version 2
File size : 557 MiB
Duration : 24 min 30 s
Overall bit rate : 3 176 kb/s
Encoded date : UTC 2017-07-19 22:23:28
Writing application : mkvmerge v13.0.0 ('The Juggler') 64bit
Writing library : libebml v1.3.4 + libmatroska v1.4.5

Video
ID : 1
Format : AVC
Format/Info : Advanced Video Codec
Format profile : High@L4
Format settings, CABAC : Yes
Format settings, RefFrames : 6 frames
Codec ID : V_MPEG4/ISO/AVC
Duration : 24 min 30 s
Bit rate : 2 855 kb/s
Width : 1 280 pixels
Height : 720 pixels
Display aspect ratio : 16:9
Frame rate mode : Constant
Frame rate : 23.976 (24000/1001) FPS
Color space : YUV
Chroma subsampling : 4:2:0
Bit depth : 8 bits
Scan type : Progressive
Bits/(Pixel*Frame) : 0.129
Stream size : 500 MiB (90%)
Writing library : x264 core 142
Encoding settings : cabac=1 / ref=6 / deblock=1:1:1 / analyse=0x3:0x113 / me=umh / subme=8 / psy=1 / psy_rd=0.40:0.00 / mixed_ref=1 / me_range=16 / chroma_me=1 / trellis=1 / 8x8dct=1 / cqm=0 / deadzone=21,11 / fast_pskip=1 / chroma_qp_offset=-2 / threads=10 / lookahead_threads=1 / sliced_threads=0 / nr=0 / decimate=1 / interlaced=0 / bluray_compat=0 / constrained_intra=0 / bframes=3 / b_pyramid=2 / b_adapt=2 / b_bias=0 / direct=3 / weightb=1 / open_gop=0 / weightp=2 / keyint=48 / keyint_min=24 / scenecut=40 / intra_refresh=0 / rc_lookahead=48 / rc=crf / mbtree=1 / crf=15.0 / qcomp=0.60 / qpmin=0 / qpmax=69 / qpstep=4 / vbv_maxrate=4000 / vbv_bufsize=6000 / crf_max=0.0 / nal_hrd=none / filler=0 / ip_ratio=1.40 / aq=1:0.60
Language : Japanese
Default : Yes
Forced : No

Audio #1
ID : 2
Format : AAC
Format/Info : Advanced Audio Codec
Format profile : LC
Codec ID : A_AAC
Duration : 24 min 30 s
Bit rate : 192 kb/s
Channel(s) : 2 channels
Channel positions : Front: L R
Sampling rate : 48.0 kHz
Frame rate : 46.875 FPS (1024 SPF)
Compression mode : Lossy
Delay relative to video : -83 ms
Stream size : 33.2 MiB (6%)
Language : Russian
Default : Yes
Forced : No

Audio #2
ID : 3
Format : AAC
Format/Info : Advanced Audio Codec
Format profile : LC
Codec ID : A_AAC
Duration : 24 min 30 s
Bit rate : 128 kb/s
Channel(s) : 2 channels
Channel positions : Front: L R
Sampling rate : 44.1 kHz
Frame rate : 43.066 FPS (1024 SPF)
Compression mode : Lossy
Delay relative to video : -83 ms
Stream size : 22.4 MiB (4%)
Language : Japanese
Default : No
Forced : No


Время раздачи: До первых сидов
[NNM-Club.name]_Knight's & Magic [KANSAI].torrent
 Торрент: Платиновая раздача  Зарегистрирован
 
Скачать


Примагнититься
 Зарегистрирован:   28 Сен 2017 23:23:01
 Размер:   4,84 GB  (
 Рейтинг:   4,3 (Голосов: 36)
 Поблагодарили:   126
 Проверка:   Оформление проверено модератором 29 Сен 2017 00:26:22
Как cкачать  ·  Как раздать  ·  Правильно оформить  ·  Поднять ратио!  
Б.-Б.
Олигарх+
 
Стаж: 6 лет 7 мес.
Сообщений: 742
Ratio: 94,754
Раздал: 39,83 TB
Поблагодарили: 615
99.91%
Откуда: Влади​восто​к​
ussr.gif
То есть 28 летнему зад... отаку путём перевоплощения выдали не только ОБЧР, но и лоли в ближайшее окружение. )))
Nyakov
Стаж: 7 лет 3 мес.
Сообщений: 122
Ratio: 39,603
Раздал: 2,739 TB
95.89%
ukraine.gif
Б.-Б. писал(а): Перейти к сообщению
То есть 28 летнему зад... отаку путём перевоплощения выдали не только ОБЧР, но и лоли в ближайшее окружение. )))

Неблохо =====)))
shingo3
Стаж: 5 лет 1 мес.
Сообщений: 131
Ratio: 8,156
37.59%
russia.gif
И в это, вот это, вкладывают деньги. Делают, озвучивают, рисуют и т.д. и т.п. Что бы это потешило с месяцок и забылось. Что не так с индустрией?!

_________________

Б.-Б.
Олигарх+
 
Стаж: 6 лет 7 мес.
Сообщений: 742
Ratio: 94,754
Раздал: 39,83 TB
Поблагодарили: 615
99.91%
Откуда: Влади​восто​к​
ussr.gif
shingo3 писал(а): Перейти к сообщению
И в это, вот это, вкладывают деньги. Делают, озвучивают, рисуют и т.д. и т.п. Что бы это потешило с месяцок и забылось. Что не так с индустрией?!

О да, где философская глубина и хитроумный сюжет "Спиди-гонщика"!

Добавлено спустя 1 час 18 минут 31 секунду:

Ampho_DnB
А в чём прикол отказа от субтитров? Мне и так норм, но просто интересно. :незнает: =)
Ampho_DnB ®
RG Аниме
 
Стаж: 5 лет 10 мес.
Сообщений: 2733
Ratio: 182,116
Поблагодарили: 72315
100%
Откуда: дует?
roody.gif
Б.-Б. писал(а): Перейти к сообщению
А в чём прикол отказа от субтитров? Мне и так норм, но просто интересно. :незнает: =)

Надоели они мне. Здесь раздел с озвучкой, так же есть раздел с сабами. Кому как нравится смотреть, пускай уже выбирают сами.
dopic
Стаж: 7 лет 4 мес.
Сообщений: 28
Ratio: 19,91
1.67%
одного не понимаю..почему отаку 28 лет от роду впихнули в тело мальчика, которого все мальчиком не считают и одевают в женскую одежду..он заднеприводным был что ли? просто реально напрягает что из всех парней он там одевается в чулочки и плетьеца с открытыми плечами..он атм по сюжету манги таким был?
Arny very old
Стаж: 9 лет 10 мес.
Сообщений: 111
Ratio: 2,673
2.32%
нам с дочей аниме зашло, каждую серию ждем
Raptor303
Стаж: 6 лет 3 мес.
Сообщений: 3469
Ratio: 67,374
100%
estonia.gif
Цитата:
Действие происходит в наше время и повествует нам о главном герое, 28 летнем отаку по имени Курата, который увлекается мехой и работает в издательстве . Однажды после окончания работы в офисе, по пути домой его сбивает машина и он перевоплощается в другом мире под именем Эрнести Эшевалье, также известного как Эру. В этом мире существует огромное человекоподобное оружие, известное как "Силуэт Рыцарей". Мечтая о том, чтобы пилотировать этих роботов, Эру, с друзьями детства, Аккидом Альтером и его сестрой Адельтроудом Альтером, стремятся стать пилотами этих Силуэтских Рыцарей.

1. Что за другой мир? Другое измерение? Другая Земля (параллельная вселенная) ???
2. А его друзья тоже туда попали, что он вместе с ними стремится стать пилотом? Ничего не понял.

shingo3 писал(а): Перейти к сообщению
И в это, вот это, вкладывают деньги. Делают, озвучивают, рисуют и т.д. и т.п. Что бы это потешило с месяцок и забылось. Что не так с индустрией?!

В Японии аниме делают все, кому не лень - такое впечатление от обилия этих вещей ) Каждый год столько их выходит...
Ampho_DnB ®
RG Аниме
 
Стаж: 5 лет 10 мес.
Сообщений: 2733
Ratio: 182,116
Поблагодарили: 72315
100%
Откуда: дует?
roody.gif
Торрент обновлен. Добавлена 13 серия.
Релиз завершен.
konoplin
Стаж: 7 лет 4 мес.
Сообщений: 15
Ratio: 6,947
100%
Спасибо.
andramiele
Стаж: 8 лет 1 мес.
Сообщений: 13
Ratio: 1,826
1.62%
belize.gif
А аниме действительно хорошее , сама идея понравилась , жаль рисовка не подходит к таитлу. упрощеная и больше фентезийная из 2000 годов.
gios2000
Стаж: 1 год 7 мес.
Сообщений: 25
Ratio: 35,844
4.27%
poland.gif
del
Показать сообщения:   
Начать новую тему   Ответить на тему    Торрент-трекер NNM-Club -> Аниме с озвучкой -> Аниме с озвучкой (HD) Часовой пояс: GMT + 3
Страница 1 из 1