Интеллигентный торрент-трекер
canvas not supported
Нас вместе: 4 313 638

Keppeki Danshi! Aoyama-kun / Cleanliness Boy! Aoyama-kun / Чистюля Аояма-кун [2017, TV, 7 из 12] WEB-DL 720p Raw+Rus


 
 
RSS
Начать новую тему   Ответить на тему    Торрент-трекер NNM-Club -> Аниме с озвучкой -> Онгоинги с озвучкой
Автор Сообщение
Ampho_DnB ®
RG Аниме
 
Стаж: 5 лет 7 мес.
Сообщений: 4214
Ratio: 180,959
Поблагодарили: 68802
100%
Откуда: дует?
roody.gif
Keppeki Danshi! Aoyama-kun / Cleanliness Boy! Aoyama-kun / Чистюля Аояма-кун
Жанр: комедия, спорт, сёнэн
Тип: TV-сериал
Продолжительность: 7 из 12 эпизодов по 25 минут
Выпуск: c 03.07.2017
Автор: Сакамото Таку
Режиссер: Итикава Кадзуя
Производство: Studio Hibari
Информационные ссылки: AniDB || World Art || MAL || ANN
Релиз подготовлен студией Kansai
  • Тип озвучки: Многоголосая, закадровая

Описание:
Что будет, если совместить несовместимое? Например, возьмём спортивную игру на большом поле с мячом, где легко упасть и испачкаться, порой приходится трогать грязный мяч, не говорим уже о том, что, играя в неё, невозможно не вспотеть. А теперь возьмём патологического чистюлю, который ненавидит грязь и микробы и даже слышать не хочет о них. Невозможно, скажете вы. Как бы не так, скажем мы и представим вам самого чистого футболиста в мире! Пасы головой, прикосновения товарищей по команде и грязь на теле не для него.

Знакомьтесь, это Аояма! Он учится в первом классе старшей школы Фуджими и состоит в её футбольном клубе. Аояма - очень талантливый игрок, но он ни за что на свете не согласится испачкаться. Несмотря на свою занятную странность, он всё равно умудряется быть лучшим из лучших. Причудливый чистюля-футболист играет в юношеской сборной Японии! Вооружившись перчатками и пылесборником, отважный Аояма объявляет бой грязи и команде соперников!
Качество: WEB-DLRip | Энкод: Erai-raws
Язык озвучки: Японский и Русский
Формат: MKV
Видео: x264, 1280x720, ~2 229 kbps, 23.976 fps
Аудио: AAC, 128 kbps, 44.1 kHz, 2 ch
Аудио: AAC, 192 kbps, 48.0 kHz, 2 ch
01. Aoyama-kun Is a Clean Freak!
02. Aoyama-kun, Do You Remember?
03. The Reason Aoyama-kun Isn`t Here
04. Narita-kun Keeps It a Secret
05. Tsukamoto-kun`s Life Is All About Laughs
06. Ozaki-kun Has His Pride
07. Odagiri-san Can`t Get It In
General
Unique ID : 217529245236921788754810291784488845933 (0xA3A69BD4F44ABE308BA7DEC15CE8026D)
Complete name : Keppeki Danshi! Aoyama-kun [KANSAI]\[KANSAI] Keppeki Danshi! Aoyama-kun - 01 [720p].mkv
Format : Matroska
Format version : Version 4 / Version 2
File size : 432 MiB
Duration : 23 min 40 s
Overall bit rate : 2 549 kb/s
Encoded date : UTC 2017-07-17 20:56:52
Writing application : mkvmerge v13.0.0 ('The Juggler') 64bit
Writing library : libebml v1.3.4 + libmatroska v1.4.5

Video
ID : 1
Format : AVC
Format/Info : Advanced Video Codec
Format profile : High@L4
Format settings, CABAC : Yes
Format settings, RefFrames : 6 frames
Codec ID : V_MPEG4/ISO/AVC
Duration : 23 min 40 s
Bit rate : 2 229 kb/s
Width : 1 280 pixels
Height : 720 pixels
Display aspect ratio : 16:9
Frame rate mode : Constant
Frame rate : 23.976 (24000/1001) FPS
Color space : YUV
Chroma subsampling : 4:2:0
Bit depth : 8 bits
Scan type : Progressive
Bits/(Pixel*Frame) : 0.101
Stream size : 377 MiB (87%)
Writing library : x264 core 142
Encoding settings : cabac=1 / ref=6 / deblock=1:1:1 / analyse=0x3:0x113 / me=umh / subme=8 / psy=1 / psy_rd=0.40:0.00 / mixed_ref=1 / me_range=16 / chroma_me=1 / trellis=1 / 8x8dct=1 / cqm=0 / deadzone=21,11 / fast_pskip=1 / chroma_qp_offset=-2 / threads=10 / lookahead_threads=1 / sliced_threads=0 / nr=0 / decimate=1 / interlaced=0 / bluray_compat=0 / constrained_intra=0 / bframes=3 / b_pyramid=2 / b_adapt=2 / b_bias=0 / direct=3 / weightb=1 / open_gop=0 / weightp=2 / keyint=48 / keyint_min=24 / scenecut=40 / intra_refresh=0 / rc_lookahead=48 / rc=crf / mbtree=1 / crf=15.0 / qcomp=0.60 / qpmin=0 / qpmax=69 / qpstep=4 / vbv_maxrate=4000 / vbv_bufsize=6000 / crf_max=0.0 / nal_hrd=none / filler=0 / ip_ratio=1.40 / aq=1:0.60
Language : Japanese
Default : Yes
Forced : No

Audio #1
ID : 2
Format : AAC
Format/Info : Advanced Audio Codec
Format profile : LC
Codec ID : A_AAC
Duration : 23 min 40 s
Bit rate : 192 kb/s
Channel(s) : 2 channels
Channel positions : Front: L R
Sampling rate : 48.0 kHz
Frame rate : 46.875 FPS (1024 SPF)
Compression mode : Lossy
Delay relative to video : -83 ms
Stream size : 32.1 MiB (7%)
Language : Russian
Default : Yes
Forced : No

Audio #2
ID : 3
Format : AAC
Format/Info : Advanced Audio Codec
Format profile : LC
Codec ID : A_AAC
Duration : 23 min 40 s
Bit rate : 128 kb/s
Channel(s) : 2 channels
Channel positions : Front: L R
Sampling rate : 44.1 kHz
Frame rate : 43.066 FPS (1024 SPF)
Compression mode : Lossy
Delay relative to video : -83 ms
Stream size : 21.7 MiB (5%)
Language : Japanese
Default : No
Forced : No


Время раздачи: До первых сидов
[NNM-Club.name]_Keppeki Danshi! Aoyama-kun [KANSAI].torrent
 Торрент:   Зарегистрирован
 
Зарегистрируйтесь и скачайте торрент!
13,4 KB
Free Leech
Примагнититься
 Зарегистрирован:   18 Авг 2017 01:50:58
 Размер:   2,5 GB  (
 Рейтинг:    (Голосов: 9)
 Поблагодарили:   29
 Проверка:   Оформление проверено модератором 18 Авг 2017 09:03:13
Как cкачать  ·  Как раздать  ·  Правильно оформить  ·  Поднять ратио!  
Ampho_DnB ®
RG Аниме
 
Стаж: 5 лет 7 мес.
Сообщений: 4214
Ratio: 180,959
Поблагодарили: 68802
100%
Откуда: дует?
roody.gif
Торрент обновлен. Добавлена 2 серия.
Ampho_DnB ®
RG Аниме
 
Стаж: 5 лет 7 мес.
Сообщений: 4214
Ratio: 180,959
Поблагодарили: 68802
100%
Откуда: дует?
roody.gif
Торрент полностью обновлен. Добавлена 3 серия.
Ampho_DnB ®
RG Аниме
 
Стаж: 5 лет 7 мес.
Сообщений: 4214
Ratio: 180,959
Поблагодарили: 68802
100%
Откуда: дует?
roody.gif
Торрент обновлен. Добавлена 4 серия.
Ampho_DnB ®
RG Аниме
 
Стаж: 5 лет 7 мес.
Сообщений: 4214
Ratio: 180,959
Поблагодарили: 68802
100%
Откуда: дует?
roody.gif
Торрент обновлен. Добавлена 5 серия.
Ampho_DnB ®
RG Аниме
 
Стаж: 5 лет 7 мес.
Сообщений: 4214
Ratio: 180,959
Поблагодарили: 68802
100%
Откуда: дует?
roody.gif
Торрент обновлен. Добавлена 6 серия.
Ampho_DnB ®
RG Аниме
 
Стаж: 5 лет 7 мес.
Сообщений: 4214
Ratio: 180,959
Поблагодарили: 68802
100%
Откуда: дует?
roody.gif
Торрент обновлен. Добавлена 7 серия.
Показать сообщения:   
Начать новую тему   Ответить на тему    Торрент-трекер NNM-Club -> Аниме с озвучкой -> Онгоинги с озвучкой Часовой пояс: GMT + 3
Страница 1 из 1