Интеллигентный торрент-трекер
canvas not supported
Нас вместе: 4 274 694

Koi to Uso / Love and Lies / Любовь и ложь [2017, TV, 12] WEB-DL 720p Raw+Rus


 
 
RSS
Начать новую тему   Ответить на тему    Торрент-трекер NNM-Club -> Аниме с озвучкой -> Аниме с озвучкой (HD)
Автор Сообщение
Ampho_DnB ®
RG Аниме
 
Стаж: 5 лет 10 мес.
Сообщений: 2645
Ratio: 180,665
Поблагодарили: 71752
100%
Откуда: дует?
roody.gif
Koi to Uso / Love and Lies / Любовь и ложь
Жанр: драма, романтика, школа
Тип: TV-сериал
Продолжительность: 12 эпизодов по 25 минут
Выпуск: c 03.07.2017 по 19.09.2017
Автор: Мусао
Снято по манге: Koi to Uso
Режиссер: Такуно Сэйки
Производство: Liden Films
Информационные ссылки: AniDB || World Art || MAL || ANN
Релиз подготовлен студией Kansai
  • Тип озвучки: Многоголосая, закадровая

Описание:
В не столь далёком прошлом родители всегда решали судьбу своих детей. Особенно в семейном плане. Мнения своих отпрысков никто не спрашивал, ведь родители прекрасно понимали, какой человек подойдёт их драгоценному чаду. Порой люди даже с самого детства заранее знали, с кем им предстоит обручиться и прожить всю свою жизнь. Теперь мы сами хозяева своей судьбы, сами выбираем, с кем хотим быть вместе, и движет нами всё больше любовь, а не холодный расчёт. Но, как говорится, всё новое - это хорошо забытое старое.

Так случилось и в Японии. Проблема поиска спутника жизни была гениально решена правительством. Отныне можно жить и не переживать о делах любовных, а посвящать себя более важным вещам, ведь государство позаботится о тебе и обязательно найдёт подходящую пару. Но вот беда, Юкари Нэджима не знает, как ему теперь быть. Он по-настоящему влюбился в прекрасную девушку, буквально пылает от чувств к ней. Но у государства на его счёт совершенно другие планы, и суждено ему провести свою жизнь совсем не со своей избранницей.
Качество: WEB-DLRip | Энкод: HorribleSubs
Язык озвучки: Японский и Русский
Формат: MKV
Видео: x264, 1280x720, ~1 776 kbps, 23.976 fps
Аудио: AAC, 128 kbps, 44.1 kHz, 2 ch
Аудио: AAC, 192 kbps, 48.0 kHz, 2 ch
01. First Love
02. A Small Lie
03. Overlooked Love
04. The Science of Love
05. Risky Love
06. A Prison to Compel Love
07. A Silent Lie
08. Feelings Without Lies
09. So Bright It Doesn`t Seem Real
10. A Love to Give Everything For
11. I Don`t Care If It`s a Lie
12. Love and Lies
General
Unique ID : 198701392254996461776985371475971147354 (0x957C7F029B7366FAB578A470DE50065A)
Complete name : Koi to Uso [KANSAI]\[KANSAI] Koi to Uso TV - 01 [720p].mkv
Format : Matroska
Format version : Version 4 / Version 2
File size : 276 MiB
Duration : 23 min 59 s
Overall bit rate mode : Variable
Overall bit rate : 1 607 kb/s
Encoded date : UTC 2017-07-19 22:24:48
Writing application : mkvmerge v13.0.0 ('The Juggler') 64bit
Writing library : libebml v1.3.4 + libmatroska v1.4.5

Video
ID : 1
Format : AVC
Format/Info : Advanced Video Codec
Format profile : High@L3.1
Format settings, CABAC : Yes
Format settings, RefFrames : 5 frames
Codec ID : V_MPEG4/ISO/AVC
Duration : 23 min 59 s
Bit rate mode : Variable
Bit rate : 1 290 kb/s
Maximum bit rate : 4 500 kb/s
Width : 1 280 pixels
Height : 720 pixels
Display aspect ratio : 16:9
Frame rate mode : Constant
Frame rate : 23.976 (24000/1001) FPS
Color space : YUV
Chroma subsampling : 4:2:0
Bit depth : 8 bits
Scan type : Progressive
Bits/(Pixel*Frame) : 0.058
Stream size : 221 MiB (80%)
Language : Japanese
Default : Yes
Forced : No
Color range : Limited
Color primaries : BT.709
Transfer characteristics : BT.709
Matrix coefficients : BT.709

Audio #1
ID : 2
Format : AAC
Format/Info : Advanced Audio Codec
Format profile : LC
Codec ID : A_AAC
Duration : 23 min 59 s
Bit rate : 192 kb/s
Channel(s) : 2 channels
Channel positions : Front: L R
Sampling rate : 48.0 kHz
Frame rate : 46.875 FPS (1024 SPF)
Compression mode : Lossy
Stream size : 32.5 MiB (12%)
Language : Russian
Default : Yes
Forced : No

Audio #2
ID : 3
Format : AAC
Format/Info : Advanced Audio Codec
Format profile : LC
Codec ID : A_AAC
Duration : 23 min 59 s
Bit rate : 125 kb/s
Channel(s) : 2 channels
Channel positions : Front: L R
Sampling rate : 48.0 kHz
Frame rate : 46.875 FPS (1024 SPF)
Compression mode : Lossy
Stream size : 21.5 MiB (8%)
Language : Japanese
Default : No
Forced : No


Время раздачи: До первых сидов
[NNM-Club.name]_Koi to Uso [KANSAI].torrent
 Торрент:   Зарегистрирован
 
Зарегистрируйтесь и скачайте торрент!
19 KB
Free Leech
Примагнититься
 Зарегистрирован:   23 Сен 2017 01:32:10
 Размер:   3,56 GB  (
 Рейтинг:   3,6 (Голосов: 17)
 Поблагодарили:   51
 Проверка:   Оформление проверено модератором 23 Сен 2017 01:32:45
Как cкачать  ·  Как раздать  ·  Правильно оформить  ·  Поднять ратио!  
Ampho_DnB ®
RG Аниме
 
Стаж: 5 лет 10 мес.
Сообщений: 2645
Ratio: 180,665
Поблагодарили: 71752
100%
Откуда: дует?
roody.gif
Торрент обновлен. Добавлена 12 серия.
Релиз завершен.
Показать сообщения:   
Начать новую тему   Ответить на тему    Торрент-трекер NNM-Club -> Аниме с озвучкой -> Аниме с озвучкой (HD) Часовой пояс: GMT + 3
Страница 1 из 1