Интеллигентный торрент-трекер
canvas not supported
Нас вместе: 4 220 283

Isekai Shokudou / Restaurant to Another World / Ресторанчик из иного мира [2017, TV, 12 ep] HDTV 720p Raw+Rus


 
 
RSS
Начать новую тему   Ответить на тему    Торрент-трекер NNM-Club -> Аниме с озвучкой -> Аниме с озвучкой (HD)
Автор Сообщение
Ampho_DnB ®
RG Аниме
Uploader 100+
 
Стаж: 6 лет
Сообщений: 2832
Ratio: 200,797
Поблагодарили: 73463
100%
Откуда: дует?
roody.gif
Isekai Shokudou / Restaurant to Another World / Ресторанчик из иного мира
Жанр: комедия, фэнтези
Тип: TV-сериал
Продолжительность: 12 эпизодов по 25 минут
Выпуск: c 04.07.2017 по 19.09.2017
Автор: Инудзука Дзюмпэй
Режиссер: Дзимбо Масато
Производство: Silver Link
Информационные ссылки: AniDB || World Art || MAL || ANN
Релиз подготовлен группой AniLibria
  • Перевод: Inari
  • Озвучивание: Cleo-chan, Kanade EU, Nuts
  • Тайминг и работа со звуком: Pomidorchik

Описание:
Чем зауряднее и обычнее выглядит местечко, тем больше у него шансов оказаться на самом деле пристанищем всего таинственного и мистического. Так получилось и с Кошачьей кафешкой. Это заведение вот уже пятьдесят лет радует своих посетителей вкусной и недорогой едой. Сюда заходит и стар, и млад, ведь помимо западной кухни здесь можно встретить японские блюда и лакомства других народов. Уютный ресторанчик с дубовой дверью и вывеской в виде кота давно поселился в сердцах местного населения.

Но по субботам Кошачья кафешка закрыта. Все уже привыкли к этому, и никто не задавался вопросом, почему. Но закрыто заведение только для людей. Для определённого контингента каждую субботу двери всё ещё широко распахнуты. Особые гости со всех уголков мира собираются здесь, чтобы отведать мистически вкусные блюда! Здесь официантками трудятся девушка Алетта, жившая раньше в мире духов, а также Куро, являющаяся человеческим воплощением дракона! Гости в своём разнообразии не уступают персоналу. Субботние вечеринки странных существ объявляются открытыми!
Качество: HDTVRip | Энкод: Ohys-Raws
Язык озвучки: Японский и Русский
Формат: MKV
Видео: x264, 1280x720, ~1 591 kbps, 23.976 fps
Аудио: AAC, 192 kbps, 48.0 kHz, 2 ch
Аудио: AAC, 192 kbps, 48.0 kHz, 2 ch
01. Beef Stew / Breakfast Special
02. Minced Meat Cutlet / Fried Shrimp
03. Spaghetti with Meat Sauce / Chocolate Parfait
04. Omelette Rice / Tofu Steak
05. Pork Cutlet Rice Bowl / Pudding a la Mode
06. Sandwiches / Steamed Potato with Butter
07. Curry Rice / Chicken Curry
08. Hamburg Steak / Assorted Cookies
09. Fried Seafood / Melon Soda Float
10. Crepes / Natto Spaghetti
11. Carpaccio / Curry Bun
12. Pork Soup / Croquettes
General
Unique ID : 240327475132997167819764293359566938270 (0xB4CD6359538B1F9A8BD040DDFD79609E)
Complete name : Isekai Shokudou [AniLibria]\Isekai_Shokudou_[01]_[AniLibria_TV]_[HDTV-Rip_720p].mkv
Format : Matroska
Format version : Version 4 / Version 2
File size : 342 MiB
Duration : 24 min 10 s
Overall bit rate : 1 978 kb/s
Encoded date : UTC 2017-07-17 20:54:46
Writing application : mkvmerge v13.0.0 ('The Juggler') 64bit
Writing library : libebml v1.3.4 + libmatroska v1.4.5

Video
ID : 1
Format : AVC
Format/Info : Advanced Video Codec
Format profile : Main@L4.1
Format settings, CABAC : Yes
Format settings, RefFrames : 4 frames
Codec ID : V_MPEG4/ISO/AVC
Duration : 24 min 9 s
Bit rate : 1 591 kb/s
Width : 1 280 pixels
Height : 720 pixels
Display aspect ratio : 16:9
Frame rate mode : Constant
Frame rate : 23.976 (24000/1001) FPS
Color space : YUV
Chroma subsampling : 4:2:0
Bit depth : 8 bits
Scan type : Progressive
Bits/(Pixel*Frame) : 0.072
Stream size : 275 MiB (80%)
Title : Original [Ohys-Raws]
Writing library : x264 core 152 r2851+58 429492e t_mod_Custom [8-bit@all X86_64]
Encoding settings : cabac=1 / ref=3 / deblock=1:0:0 / analyse=0x1:0x111 / me=hex / subme=7 / psy=1 / fade_compensate=0.00 / psy_rd=1.00:0.00 / mixed_ref=1 / me_range=16 / chroma_me=1 / trellis=1 / 8x8dct=0 / cqm=0 / deadzone=21,11 / fast_pskip=1 / chroma_qp_offset=-2 / threads=12 / lookahead_threads=2 / sliced_threads=0 / nr=0 / decimate=1 / interlaced=0 / bluray_compat=0 / constrained_intra=0 / fgo=0 / bframes=3 / b_pyramid=2 / b_adapt=1 / b_bias=0 / direct=1 / weightb=1 / open_gop=0 / weightp=2 / keyint=240 / keyint_min=1 / scenecut=40 / intra_refresh=0 / rc_lookahead=40 / rc=crf / mbtree=1 / crf=20.0000 / qcomp=0.60 / qpmin=0:0:0 / qpmax=69:69:69 / qpstep=4 / ip_ratio=1.40 / aq=1:1.50 / aq-sensitivity=10.00 / aq-factor=1.00:1.00:1.00 / aq2=0 / aq3=0
Language : Japanese
Default : Yes
Forced : Yes
Color range : Limited
Color primaries : BT.709
Transfer characteristics : BT.709
Matrix coefficients : BT.709

Audio #1
ID : 2
Format : AAC
Format/Info : Advanced Audio Codec
Format profile : LC
Codec ID : A_AAC
Duration : 24 min 10 s
Bit rate : 192 kb/s
Channel(s) : 2 channels
Channel positions : Front: L R
Sampling rate : 48.0 kHz
Frame rate : 46.875 FPS (1024 SPF)
Compression mode : Lossy
Stream size : 32.7 MiB (10%)
Title : Cleo-chan & Kanade EU & Nuts
Language : Russian
Default : Yes
Forced : Yes

Audio #2
ID : 3
Format : AAC
Format/Info : Advanced Audio Codec
Format profile : LC
Codec ID : A_AAC
Duration : 24 min 10 s
Bit rate : 192 kb/s
Channel(s) : 2 channels
Channel positions : Front: L R
Sampling rate : 48.0 kHz
Frame rate : 46.875 FPS (1024 SPF)
Compression mode : Lossy
Stream size : 33.5 MiB (10%)
Title : Original [Ohys-Raws]
Language : Japanese
Default : No
Forced : No


Время раздачи: До первых сидов
[NNM-Club.name]_Isekai Shokudou [AniLibria].torrent
 Торрент: Платиновая раздача  Зарегистрирован
 
Скачать


Примагнититься
 Зарегистрирован:   23 Сен 2017 01:25:03
 Размер:   4,21 GB  (
 Рейтинг:   4,2 (Голосов: 36)
 Поблагодарили:   117
 Проверка:   Оформление проверено модератором 23 Сен 2017 01:31:42
Как cкачать  ·  Как раздать  ·  Правильно оформить  ·  Поднять ратио!  
Ampho_DnB ®
RG Аниме
Uploader 100+
 
Стаж: 6 лет
Сообщений: 2832
Ratio: 200,797
Поблагодарили: 73463
100%
Откуда: дует?
roody.gif
Торрент обновлен. Добавлена 12 серия.
Релиз завершен.
Показать сообщения:   
Начать новую тему   Ответить на тему    Торрент-трекер NNM-Club -> Аниме с озвучкой -> Аниме с озвучкой (HD) Часовой пояс: GMT + 3
Страница 1 из 1