Интеллигентный торрент-трекер
canvas not supported
Нас вместе: 4 312 668

Олег Накрошаев | Секреты выделения в фотошоп для профи и начинающих (2017) PCRec


 
 
RSS
Начать новую тему   Ответить на тему    Торрент-трекер NNM-Club -> Обучающие видеоматериалы -> Фотография, Видео
Автор Сообщение
Денис​27121​981​ ®
Стаж: 2 года
Сообщений: 173
Ratio: 5,08
Поблагодарили: 10372
100%
chile.gif
Олег Накрошаев | Секреты выделения в фотошоп для профи и начинающих (2017) PCRec
Автор (режиссер): Олег Накрошаев
Жанр: Обработка фотографий

Описание:
При обработке фотографий нередко приходится работать с отдельными участками изображений. В этом нам помогают инструменты выделения. Их возможности в Photoshop очень широки. Инструменты выбора или иной инструмент можно выбрать на панели инструментов.

В этом видеокурсе будут рассмотрены не просто инструменты выделения - как инструменты, но и их применение в различных фотографиях по обстоятельствам на многих примерах.

Продолжительность: 02:08:01
Качество видео: PCRec

Видео: AVC/H.264, 1920x1080, ~5 043-9 788 Kbps
Аудио: AAC, 2 ch, 320 Kbps
Код: выделить все
Общее
Полное имя                               : F:\Done завершенные\Секреты выделения в фотошоп для профи и начинающих\5.avi
Формат                                   : AVI
Формат/Информация                        : Audio Video Interleave
Размер файла                             : 351 Мбайт
Продолжительность                        : 9 м. 7 с.
Режим общего битрейта                    : Постоянный
Общий поток                              : 5374 Кбит/сек
Программа кодирования                    : Lavf57.56.100

Видео
Идентификатор                            : 0
Формат                                   : AVC
Формат/Информация                        : Advanced Video Codec
Профиль формата                          : Main@L4
Параметр CABAC формата                   : Да
Параметр ReFrames формата                : 1 кадр
Параметр GOP формата                     : M=1, N=25
Идентификатор кодека                     : H264
Продолжительность                        : 9 м. 7 с.
Вид битрейта                             : Постоянный
Битрейт                                  : 5043 Кбит/сек
Ширина                                   : 1920 пикселей
Высота                                   : 1080 пикселей
Соотношение сторон                       : 16:9
Частота кадров                           : 20,000 кадров/сек
Частота кадров в оригинале               : 5,000 кадров/сек
Цветовое пространство                    : YUV
Субдискретизация насыщенности            : 4:2:0
Битовая глубина                          : 8 бит
Тип развёртки                            : Прогрессивная
Бит/(Пиксели*Кадры)                      : 0.122
Размер потока                            : 329 Мбайт (94%)

Аудио
Идентификатор                            : 1
Формат                                   : MPEG Audio
Версия формата                           : Version 1
Профиль формата                          : Layer 3
Режим                                    : Joint stereo
Расширение режима                        : MS Stereo
Идентификатор кодека                     : 55
Идентификатор кодека/Подсказка           : MP3
Продолжительность                        : 9 м. 7 с.
Вид битрейта                             : Постоянный
Битрейт                                  : 320 Кбит/сек
Каналы                                   : 2 канала
Частота                                  : 44,1 КГц
Метод сжатия                             : С потерями
Размер потока                            : 20,9 Мбайт (6%)
Выравнивание                             : Соединение по промежуткам
Продолжительность промежутка             : 26  мс. (0,52 видеокадр)
Библиотека кодирования                   : LAME3.99.5
Скриншоты:


Время раздачи: с 10:00 до 24:00 (до появления первых 3-5 скачавших)
[NNM-Club.name]_Sekretyi vyideleniya v fotoshop dlya profi i nachinayushchih.torrent
 Торрент: Платиновая раздача  Зарегистрирован
 
Скачать


Примагнититься
 Зарегистрирован:   06 Июл 2017 23:46:58
 Размер:   8,81 GB  (
 Рейтинг:   4,9 (Голосов: 51)
 Поблагодарили:   249
 Проверка:   Оформление проверено модератором 24 Июл 2017 13:46:21
Как cкачать  ·  Как раздать  ·  Правильно оформить  ·  Поднять ратио!  
ChiRa​_F.M.​Inc.​
Стаж: 6 лет 8 мес.
Сообщений: 66
Ratio: 3,123
78.62%
russia.gif
спасибо !
pes57076
Стаж: 2 года 5 мес.
Сообщений: 135
Ratio: 9,551
Поблагодарили: 2119
1.75%
Раздающему блаходарочка за труды!
Показать сообщения:   
Начать новую тему   Ответить на тему    Торрент-трекер NNM-Club -> Обучающие видеоматериалы -> Фотография, Видео Часовой пояс: GMT + 3
Страница 1 из 1