Интеллигентный торрент-трекер
canvas not supported
Нас вместе: 4 312 847

Nanamaru Sanbatsu / Nana Maru San Batsu / Семь — верно, три — неверно [2017, TV, 6 из 12] WEB-DL 720p Raw+Rus


 
 
RSS
Начать новую тему   Ответить на тему    Торрент-трекер NNM-Club -> Аниме с озвучкой -> Онгоинги с озвучкой
Автор Сообщение
Ampho_DnB ®
RG Аниме
 
Стаж: 5 лет 7 мес.
Сообщений: 4214
Ratio: 180,99
Поблагодарили: 68814
100%
Откуда: дует?
roody.gif
Nanamaru Sanbatsu / Nana Maru San Batsu / Семь — верно, три — неверно
Жанр: комедия, спорт, школа, сэйнэн
Тип: TV-сериал
Продолжительность: 6 из 12 эпизодов по 25 минут
Выпуск: c 05.07.2017
Автор: Сугимото Икура
Снято по манге: Nanamaru Sanbatsu
Режиссер: Окуваки Масахару
Производство: TMS
Информационные ссылки: AniDB || World Art || MAL || ANN
Релиз подготовлен группой AniLibria
  • Перевод: ShiYoru
  • Озвучивание: Myuk, LeeAnnushka, Gomer, DymRyb
  • Тайминг и работа со звуком: Z3nC0rZ

Описание:
Шики Кошияма – обожает книги и терпеть не может находиться в центре внимания. Он содрогается от одной мысли о нахождении в обществе, а идея об участии в школьной викторине не приходила даже в голову. Но ни тут то было…

Чтобы подлить масла в огонь, его одноклассница, Мари Фуками, побеждает каждый раз, нажимая на кнопку, даже не дослушав вопрос до конца. "Глупо не жать на кнопку, если ответ уже у тебя в голове. Какая-то доля секунды решает: кто выиграл, а кто проиграл," – утверждает она.

Некоторое время Шики наблюдает за Мари. Он определяет, как она даёт ответы на викторину. Сколько же всего нового он узнаёт после знакомства с членами клуба Викторин и их сильным соперником Чисато Микурией! Шики каждый раз радуется правильно данному ответу на викторине и очень огорчается, когда не успевает вовремя нажать кнопку. Вместе со своими новыми друзьями, он улучшает свои знания и навыки для побед в викторинах.
Качество: WEB-DLRip | Энкод: HorribleSubs
Язык озвучки: Японский и Русский
Формат: MKV
Видео: x264, 1280x720, ~1 776 kbps, 23.976 fps
Аудио: AAC, 128 kbps, 44.1 kHz, 2 ch
Аудио: AAC, 192 kbps, 48.0 kHz, 2 ch
01. Don`t You Want to Become a Quiz King?
02. A Matter of 0.01 Seconds?!
03. If You Want the Right to Answer
04. A Mysterious Beauty Appears
05. Buzou vs Miyaura! Ding!
06. A. Maid B. Lieutenant Colonel C. Little Devil
General
Unique ID : 208710124615206868806052954716347356053 (0x9D041B9D52E98EA396B0804C7268D395)
Complete name : Nana Maru San Batsu [AniLibria]\Nana_Maru_San_Batsu_[01]_[AniLibria_TV]_[WEBRip_720p].mkv
Format : Matroska
Format version : Version 4 / Version 2
File size : 344 MiB
Duration : 23 min 3 s
Overall bit rate : 2 089 kb/s
Encoded date : UTC 2017-07-17 20:57:38
Writing application : mkvmerge v13.0.0 ('The Juggler') 64bit
Writing library : libebml v1.3.4 + libmatroska v1.4.5

Video
ID : 1
Format : AVC
Format/Info : Advanced Video Codec
Format profile : High@L4
Format settings, CABAC : Yes
Format settings, RefFrames : 6 frames
Codec ID : V_MPEG4/ISO/AVC
Duration : 23 min 0 s
Bit rate : 1 776 kb/s
Width : 1 280 pixels
Height : 720 pixels
Display aspect ratio : 16:9
Frame rate mode : Variable
Frame rate : 23.976 (23976/1000) FPS
Color space : YUV
Chroma subsampling : 4:2:0
Bit depth : 8 bits
Scan type : Progressive
Bits/(Pixel*Frame) : 0.080
Stream size : 291 MiB (85%)
Writing library : x264 core 120 r2120 0c7dab9
Encoding settings : cabac=1 / ref=6 / deblock=1:1:1 / analyse=0x3:0x113 / me=umh / subme=8 / psy=1 / psy_rd=0.40:0.00 / mixed_ref=1 / me_range=16 / chroma_me=1 / trellis=1 / 8x8dct=1 / cqm=0 / deadzone=21,11 / fast_pskip=1 / chroma_qp_offset=-2 / threads=4 / sliced_threads=0 / nr=0 / decimate=1 / interlaced=0 / bluray_compat=0 / constrained_intra=0 / bframes=3 / b_pyramid=2 / b_adapt=2 / b_bias=0 / direct=3 / weightb=1 / open_gop=0 / weightp=2 / keyint=250 / keyint_min=23 / scenecut=40 / intra_refresh=0 / rc_lookahead=50 / rc=2pass / mbtree=1 / bitrate=1776 / ratetol=1.0 / qcomp=0.60 / qpmin=0 / qpmax=69 / qpstep=4 / cplxblur=20.0 / qblur=0.5 / vbv_maxrate=3552 / vbv_bufsize=8880 / nal_hrd=none / ip_ratio=1.40 / aq=1:0.60
Language : Japanese
Default : Yes
Forced : No

Audio #1
ID : 2
Format : AAC
Format/Info : Advanced Audio Codec
Format profile : LC
Codec ID : A_AAC
Duration : 23 min 3 s
Bit rate : 192 kb/s
Channel(s) : 2 channels
Channel positions : Front: L R
Sampling rate : 48.0 kHz
Frame rate : 46.875 FPS (1024 SPF)
Compression mode : Lossy
Stream size : 31.7 MiB (9%)
Title : LeeAnnushka & Myuk & Gomer & DimRyb
Language : Russian
Default : Yes
Forced : Yes

Audio #2
ID : 3
Format : AAC
Format/Info : Advanced Audio Codec
Format profile : LC
Codec ID : A_AAC
Duration : 23 min 0 s
Bit rate : 128 kb/s
Channel(s) : 2 channels
Channel positions : Front: L R
Sampling rate : 44.1 kHz
Frame rate : 43.066 FPS (1024 SPF)
Compression mode : Lossy
Stream size : 21.1 MiB (6%)
Title : Original
Language : Japanese
Default : No
Forced : No


Время раздачи: До первых сидов
[NNM-Club.name]_Nana Maru San Batsu [AniLibria].torrent
 Торрент:   Зарегистрирован
 
Зарегистрируйтесь и скачайте торрент!
11 KB
Free Leech
Примагнититься
 Зарегистрирован:   18 Авг 2017 01:55:48
 Размер:   2,02 GB  (
 Рейтинг:   4,1 (Голосов: 14)
 Поблагодарили:   32
 Проверка:   Оформление проверено модератором 18 Авг 2017 09:02:15
Как cкачать  ·  Как раздать  ·  Правильно оформить  ·  Поднять ратио!  
Ampho_DnB ®
RG Аниме
 
Стаж: 5 лет 7 мес.
Сообщений: 4214
Ratio: 180,99
Поблагодарили: 68814
100%
Откуда: дует?
roody.gif
Торрент полностью обновлен. Добавлена 2 серия.
Ampho_DnB ®
RG Аниме
 
Стаж: 5 лет 7 мес.
Сообщений: 4214
Ratio: 180,99
Поблагодарили: 68814
100%
Откуда: дует?
roody.gif
Торрент обновлен. Добавлена 3 серия.
Ampho_DnB ®
RG Аниме
 
Стаж: 5 лет 7 мес.
Сообщений: 4214
Ratio: 180,99
Поблагодарили: 68814
100%
Откуда: дует?
roody.gif
Торрент обновлен. Добавлена 4 серия.
Ampho_DnB ®
RG Аниме
 
Стаж: 5 лет 7 мес.
Сообщений: 4214
Ratio: 180,99
Поблагодарили: 68814
100%
Откуда: дует?
roody.gif
Торрент обновлен. Добавлена 5 серия.
Ampho_DnB ®
RG Аниме
 
Стаж: 5 лет 7 мес.
Сообщений: 4214
Ratio: 180,99
Поблагодарили: 68814
100%
Откуда: дует?
roody.gif
Торрент обновлен. Добавлена 6 серия.
Показать сообщения:   
Начать новую тему   Ответить на тему    Торрент-трекер NNM-Club -> Аниме с озвучкой -> Онгоинги с озвучкой Часовой пояс: GMT + 3
Страница 1 из 1