Интеллигентный торрент-трекер
canvas not supported
Нас вместе: 4 312 565

Saiyuuki Reload Blast / Saiyuki Reload Blast / Путь на запад: Взрывная перезарядка [2017, TV, 7 из 12] WEB-DL 720p Raw+Rus


 
 
RSS
Начать новую тему   Ответить на тему    Торрент-трекер NNM-Club -> Аниме с озвучкой -> Онгоинги с озвучкой
Автор Сообщение
Ampho_DnB ®
RG Аниме
 
Стаж: 5 лет 7 мес.
Сообщений: 4215
Ratio: 181,057
Поблагодарили: 68844
100%
Откуда: дует?
roody.gif
Saiyuuki Reload Blast / Saiyuki Reload Blast / Путь на запад: Взрывная перезарядка
Жанр: драма, приключения, комедия, фэнтези, дзёсэй
Тип: TV-сериал
Продолжительность: 7 из 12 эпизодов по 25 минут
Выпуск: c 05.07.2017 по 20.09.2017
Автор: Минэкура Кадзуя
Снято по манге: Saiyuuki Reload Blast
Режиссер: Накано Хидэаки
Производство: Platinumvision
Информационные ссылки: AniDB || World Art || MAL || ANN
Релиз подготовлен студией Kansai
  • Тип озвучки: Многоголосая, закадровая

Описание:
Уже известные нам герои Санзо, Гоку, Годзё и Хаккай, или, как их ещё называют, группа Гендзё Санзо, противостоят силам зла и направляются всё дальше на Запад. Опасности ждут их на каждом шагу, количество врагов только растёт, но они не даются. Их цель — остановить воскрешение Гю-ма-о, злейшего среди ёкаев (демонов). Они не считают себя командой, но никогда не бросят друг друга в беде. Опасное приключение продолжается!
Качество: WEB-DLRip | Энкод: HorribleSubs
Язык озвучки: Японский и Русский
Формат: MKV
Видео: x264, 1280x720, ~1 776 kbps, 23.976 fps
Аудио: AAC, 128 kbps, 44.1 kHz, 2 ch
Аудио: AAC, 192 kbps, 48.0 kHz, 2 ch
01. Squall
02. Cloud Mirror
03. Sky Burial
04. Nataku
05. Flower Banquet
06. Promise
07. Kouten
General
Unique ID : 225357673455440802339367753575157550630 (0xA98A4F247D2CB530B303373906D14E26)
Complete name : Saiyuki Reload Blast [KANSAI]\[KANSAI] Saiyuki Reload Blast TV - 01 [720p].mkv
Format : Matroska
Format version : Version 4 / Version 2
File size : 347 MiB
Duration : 23 min 10 s
Overall bit rate : 2 094 kb/s
Encoded date : UTC 2017-07-17 20:58:26
Writing application : mkvmerge v13.0.0 ('The Juggler') 64bit
Writing library : libebml v1.3.4 + libmatroska v1.4.5

Video
ID : 1
Format : AVC
Format/Info : Advanced Video Codec
Format profile : High@L4
Format settings, CABAC : Yes
Format settings, RefFrames : 6 frames
Codec ID : V_MPEG4/ISO/AVC
Duration : 23 min 10 s
Bit rate : 1 776 kb/s
Width : 1 280 pixels
Height : 720 pixels
Display aspect ratio : 16:9
Frame rate mode : Variable
Frame rate : 23.976 (23976/1000) FPS
Color space : YUV
Chroma subsampling : 4:2:0
Bit depth : 8 bits
Scan type : Progressive
Bits/(Pixel*Frame) : 0.080
Stream size : 294 MiB (85%)
Writing library : x264 core 120 r2120 0c7dab9
Encoding settings : cabac=1 / ref=6 / deblock=1:1:1 / analyse=0x3:0x113 / me=umh / subme=8 / psy=1 / psy_rd=0.40:0.00 / mixed_ref=1 / me_range=16 / chroma_me=1 / trellis=1 / 8x8dct=1 / cqm=0 / deadzone=21,11 / fast_pskip=1 / chroma_qp_offset=-2 / threads=4 / sliced_threads=0 / nr=0 / decimate=1 / interlaced=0 / bluray_compat=0 / constrained_intra=0 / bframes=3 / b_pyramid=2 / b_adapt=2 / b_bias=0 / direct=3 / weightb=1 / open_gop=0 / weightp=2 / keyint=250 / keyint_min=23 / scenecut=40 / intra_refresh=0 / rc_lookahead=50 / rc=2pass / mbtree=1 / bitrate=1776 / ratetol=1.0 / qcomp=0.60 / qpmin=0 / qpmax=69 / qpstep=4 / cplxblur=20.0 / qblur=0.5 / vbv_maxrate=3552 / vbv_bufsize=8880 / nal_hrd=none / ip_ratio=1.40 / aq=1:0.60
Language : Japanese
Default : Yes
Forced : No

Audio #1
ID : 2
Format : AAC
Format/Info : Advanced Audio Codec
Format profile : LC
Codec ID : A_AAC
Duration : 23 min 10 s
Bit rate : 192 kb/s
Channel(s) : 2 channels
Channel positions : Front: L R
Sampling rate : 48.0 kHz
Frame rate : 46.875 FPS (1024 SPF)
Compression mode : Lossy
Stream size : 31.4 MiB (9%)
Language : Russian
Default : Yes
Forced : No

Audio #2
ID : 3
Format : AAC
Format/Info : Advanced Audio Codec
Format profile : LC
Codec ID : A_AAC
Duration : 23 min 10 s
Bit rate : 128 kb/s
Channel(s) : 2 channels
Channel positions : Front: L R
Sampling rate : 44.1 kHz
Frame rate : 43.066 FPS (1024 SPF)
Compression mode : Lossy
Stream size : 21.2 MiB (6%)
Language : Japanese
Default : No
Forced : No


Время раздачи: До первых сидов
[NNM-Club.name]_Saiyuki Reload Blast [KANSAI].torrent
 Торрент:   Зарегистрирован
 
Зарегистрируйтесь и скачайте торрент!
12,7 KB
Free Leech
Примагнититься
 Зарегистрирован:   19 Авг 2017 13:36:03
 Размер:   2,37 GB  (
 Рейтинг:   3,9 (Голосов: 11)
 Поблагодарили:   42
 Проверка:   Оформление проверено модератором 19 Авг 2017 15:13:49
Как cкачать  ·  Как раздать  ·  Правильно оформить  ·  Поднять ратио!  
Ampho_DnB ®
RG Аниме
 
Стаж: 5 лет 7 мес.
Сообщений: 4215
Ratio: 181,057
Поблагодарили: 68844
100%
Откуда: дует?
roody.gif
Торрент обновлен. Заменён рип и озвучка.
Ampho_DnB ®
RG Аниме
 
Стаж: 5 лет 7 мес.
Сообщений: 4215
Ratio: 181,057
Поблагодарили: 68844
100%
Откуда: дует?
roody.gif
Торрент полностью обновлен. Добавлена 2 серия.
Ampho_DnB ®
RG Аниме
 
Стаж: 5 лет 7 мес.
Сообщений: 4215
Ratio: 181,057
Поблагодарили: 68844
100%
Откуда: дует?
roody.gif
Торрент обновлен. Добавлена 3 серия.
Ampho_DnB ®
RG Аниме
 
Стаж: 5 лет 7 мес.
Сообщений: 4215
Ratio: 181,057
Поблагодарили: 68844
100%
Откуда: дует?
roody.gif
Торрент обновлен. Добавлена 4 серия.
Ampho_DnB ®
RG Аниме
 
Стаж: 5 лет 7 мес.
Сообщений: 4215
Ratio: 181,057
Поблагодарили: 68844
100%
Откуда: дует?
roody.gif
Торрент обновлен. Добавлена 5 серия.
Ampho_DnB ®
RG Аниме
 
Стаж: 5 лет 7 мес.
Сообщений: 4215
Ratio: 181,057
Поблагодарили: 68844
100%
Откуда: дует?
roody.gif
Торрент обновлен. Добавлена 6 серия.
Ampho_DnB ®
RG Аниме
 
Стаж: 5 лет 7 мес.
Сообщений: 4215
Ratio: 181,057
Поблагодарили: 68844
100%
Откуда: дует?
roody.gif
Торрент обновлен. Добавлена 7 серия.
Показать сообщения:   
Начать новую тему   Ответить на тему    Торрент-трекер NNM-Club -> Аниме с озвучкой -> Онгоинги с озвучкой Часовой пояс: GMT + 3
Страница 1 из 1