Интеллигентный торрент-трекер
canvas not supported
Нас вместе: 4 293 249

Dive!! / Дайв!! [2017, TV, 12 ep] WEB-DL 720p Raw+Rus


 
 
RSS
Начать новую тему   Ответить на тему    Торрент-трекер NNM-Club -> Аниме с озвучкой -> Аниме с озвучкой (HD)
Автор Сообщение
Ampho_DnB ®
RG Аниме
 
Стаж: 5 лет 9 мес.
Сообщений: 2559
Ratio: 180,356
Поблагодарили: 70770
100%
Откуда: дует?
roody.gif
Dive!! / Дайв!!
Жанр: комедия, спорт
Тип: TV-сериал
Продолжительность: 12 эпизодов по 25 минут
Выпуск: c 07.07.2017 по 22.09.2017
Автор: Мори Это
Режиссер: Судзуки Каору
Производство: Zero-G
Информационные ссылки: AniDB || World Art || MAL || ANN
Релиз подготовлен студией Kansai
  • Тип озвучки: Многоголосая, закадровая

Описание:
Лето в самом разгаре, а значит пора остудить жару освежающим аниме! История повествует нам о клубе "Мизуки”, в котором обучаются прыжкам в воду. Дела у этого клуба идут не особо радужно, провалы преследуют спортсменов раз за разом. Спонсорами было принято решение прекратить финансирование клуба, но после продолжительных просьб они предложили воистину издевательское условие: они будут финансировать клуб, но только если один из спортсменов за год дойдёт до олимпийской сборной Японии. Новая тренерша клуба Каёко Асаки с энтузиазмом восприняла этот вызов. Казалось бы, условие близко к невозможному, но она всерьёз решила выполнить его. Асаки невероятно проницательна и видит таланты юных спортсменов насквозь. Но у девушки нет опыта в подготовке олимпийцев, поэтому в дело идут всевозможные инновации! Члены клуба активно сопротивляются таким резким изменениям в своей жизни, но несмотря на упрямство, ими всё равно движет общая мечта - принять участие в Олимпийских играх и сохранить клуб "Мизуки”!
Качество: WEB-DLRip | Энкод: HorribleSubs
Язык озвучки: Японский и Русский
Формат: MKV
Видео: x264, 1280x720, ~1 776 kbps, 23.976 fps
Аудио: AAC, 128 kbps, 44.1 kHz, 2 ch
Аудио: AAC, 192 kbps, 48.0 kHz, 2 ch
01. Dive to Blue
02. Concentration Dragon
03. Enter Shibuki
04. The Strong Men
05. The Days of Gray
06. Diamond Eyes
07. Dear Friends
08. So I Envy You!
09. Next Stage Coming
10. Meet the Monster
11. Final Stage
12. Concrete Dragon
General
Unique ID : 246679530536029391739310796630855959817 (0xB994BFDC215E1667AF999406549AC509)
Complete name : Dive!! [KANSAI]\[KANSAI] Dive!! TV - 01 [720p].mkv
Format : Matroska
Format version : Version 4 / Version 2
File size : 359 MiB
Duration : 22 min 55 s
Overall bit rate mode : Variable
Overall bit rate : 2 187 kb/s
Encoded date : UTC 2017-07-17 20:54:31
Writing application : mkvmerge v13.0.0 ('The Juggler') 64bit
Writing library : libebml v1.3.4 + libmatroska v1.4.5

Video
ID : 1
Format : AVC
Format/Info : Advanced Video Codec
Format profile : High@L3.1
Format settings, CABAC : Yes
Format settings, RefFrames : 5 frames
Codec ID : V_MPEG4/ISO/AVC
Duration : 22 min 54 s
Bit rate mode : Variable
Bit rate : 1 870 kb/s
Maximum bit rate : 4 500 kb/s
Width : 1 280 pixels
Height : 720 pixels
Display aspect ratio : 16:9
Frame rate mode : Constant
Frame rate : 23.976 (24000/1001) FPS
Color space : YUV
Chroma subsampling : 4:2:0
Bit depth : 8 bits
Scan type : Progressive
Bits/(Pixel*Frame) : 0.085
Stream size : 306 MiB (85%)
Language : Japanese
Default : Yes
Forced : No
Color range : Limited
Color primaries : BT.709
Transfer characteristics : BT.709
Matrix coefficients : BT.709

Audio #1
ID : 2
Format : AAC
Format/Info : Advanced Audio Codec
Format profile : LC
Codec ID : A_AAC
Duration : 22 min 55 s
Bit rate : 192 kb/s
Channel(s) : 2 channels
Channel positions : Front: L R
Sampling rate : 48.0 kHz
Frame rate : 46.875 FPS (1024 SPF)
Compression mode : Lossy
Stream size : 31.0 MiB (9%)
Language : Russian
Default : Yes
Forced : No

Audio #2
ID : 3
Format : AAC
Format/Info : Advanced Audio Codec
Format profile : LC
Codec ID : A_AAC
Duration : 22 min 55 s
Bit rate : 125 kb/s
Channel(s) : 2 channels
Channel positions : Front: L R
Sampling rate : 48.0 kHz
Frame rate : 46.875 FPS (1024 SPF)
Compression mode : Lossy
Stream size : 20.6 MiB (6%)
Language : Japanese
Default : No
Forced : No


Время раздачи: До первых сидов
[NNM-Club.name]_Dive!! [KANSAI].torrent
 Торрент:   Зарегистрирован
 
Зарегистрируйтесь и скачайте торрент!
18,5 KB

Примагнититься
 Зарегистрирован:   27 Сен 2017 15:15:53
 Размер:   3,48 GB  (
 Рейтинг:   4,1 (Голосов: 14)
 Поблагодарили:   43
 Проверка:   Оформление проверено модератором 27 Сен 2017 18:16:51
Как cкачать  ·  Как раздать  ·  Правильно оформить  ·  Поднять ратио!  
Ampho_DnB ®
RG Аниме
 
Стаж: 5 лет 9 мес.
Сообщений: 2559
Ratio: 180,356
Поблагодарили: 70770
100%
Откуда: дует?
roody.gif
Торрент обновлен. Добавлена 12 серия.
Релиз завершен.
Показать сообщения:   
Начать новую тему   Ответить на тему    Торрент-трекер NNM-Club -> Аниме с озвучкой -> Аниме с озвучкой (HD) Часовой пояс: GMT + 3
Страница 1 из 1