Интеллигентный торрент-трекер
canvas not supported
Нас вместе: 4 293 040

Made in Abyss / Сделанный в Бездне [2017, TV, 13 ep] WEB-DL 720p Raw+Rus


Страницы:  1, 2, 3, 4, 5  След. 
 
RSS
Начать новую тему   Ответить на тему    Торрент-трекер NNM-Club -> Аниме с озвучкой -> Аниме с озвучкой (HD)
Автор Сообщение
Ampho_DnB ®
RG Аниме
 
Стаж: 5 лет 9 мес.
Сообщений: 2561
Ratio: 180,158
Поблагодарили: 70840
100%
Откуда: дует?
roody.gif
Made in Abyss / Сделанный в Бездне
Жанр: фантастика, приключения, драма
Тип: TV-сериал
Продолжительность: 13 эпизодов по 25 минут
Выпуск: c 07.07.2017 по 29.09.2017
Автор: Цукуси Акихито
Снято по манге: Made in Abyss
Режиссер: Кодзима Масаюки
Производство: Cinema Citrus
Информационные ссылки: AniDB || World Art || MAL || ANN
Релиз подготовлен студией Kansai
  • Тип озвучки: Многоголосая, закадровая

Описание:
Огромная система пещер, известная как Бездна - единственное неисследованное место на Земле. Никто не знает, насколько глубоко под землю уходит этот невероятный карьер, населённый странными, но удивительными существами, сохранивший загадочные древние реликвии, предназначение которых невозможно разгадать современному человеку. Многие поколения отважных искателей приключений бросали вызов глубинам Бездны. Со временем, таких людей стали называть Исследователями глубин.

В Оус, городе на краю Бездны, живёт малышка сиротка по имени Рико, которая мечтает стать великой исследовательницей глубин, такой же, какой была её мама, и разгадывать великие тайны карьера. Гуляя однажды по мрачным пещерам, она находит мальчика, который оказался совсем не мальчиком, а роботом...
Качество: WEB-DLRip | Энкод: HorribleSubs
Язык озвучки: Японский и Русский
Формат: MKV
Видео: x264, 1280x720, ~1 776 kbps, 23.976 fps
Аудио: AAC, 128 kbps, 44.1 kHz, 2 ch
Аудио: AAC, 192 kbps, 48.0 kHz, 2 ch
01. The City of the Great Pit
02. Resurrection Festival
03. Departure
04. The Edge of the Abyss
05. Incinerator
06. Seeker Camp
07. The Unmovable Sovereign
08. Survival Training
09. The Great Fault
10. Poison and the Curse
11. Nanachi
12. The True Nature of the Curse
13. The Challengers (часовая)
General
Unique ID : 195166589999649605420368049835342274505 (0x92D3B7CDB243C4108853887990679FC9)
Complete name : Made in Abyss [KANSAI]\[KANSAI] Made in Abyss - 01 [720p].mkv
Format : Matroska
Format version : Version 4 / Version 2
File size : 269 MiB
Duration : 24 min 40 s
Overall bit rate mode : Variable
Overall bit rate : 1 526 kb/s
Encoded date : UTC 2017-07-19 22:26:05
Writing application : mkvmerge v13.0.0 ('The Juggler') 64bit
Writing library : libebml v1.3.4 + libmatroska v1.4.5

Video
ID : 1
Format : AVC
Format/Info : Advanced Video Codec
Format profile : High@L3.1
Format settings, CABAC : Yes
Format settings, RefFrames : 5 frames
Codec ID : V_MPEG4/ISO/AVC
Duration : 24 min 40 s
Bit rate mode : Variable
Bit rate : 1 208 kb/s
Maximum bit rate : 4 500 kb/s
Width : 1 280 pixels
Height : 720 pixels
Display aspect ratio : 16:9
Frame rate mode : Constant
Frame rate : 23.976 (24000/1001) FPS
Color space : YUV
Chroma subsampling : 4:2:0
Bit depth : 8 bits
Scan type : Progressive
Bits/(Pixel*Frame) : 0.055
Stream size : 213 MiB (79%)
Language : Japanese
Default : Yes
Forced : No
Color range : Limited
Color primaries : BT.709
Transfer characteristics : BT.709
Matrix coefficients : BT.709

Audio #1
ID : 2
Format : AAC
Format/Info : Advanced Audio Codec
Format profile : LC
Codec ID : A_AAC
Duration : 24 min 40 s
Bit rate : 192 kb/s
Channel(s) : 2 channels
Channel positions : Front: L R
Sampling rate : 48.0 kHz
Frame rate : 46.875 FPS (1024 SPF)
Compression mode : Lossy
Stream size : 33.4 MiB (12%)
Language : Russian
Default : Yes
Forced : No

Audio #2
ID : 3
Format : AAC
Format/Info : Advanced Audio Codec
Format profile : LC
Codec ID : A_AAC
Duration : 24 min 40 s
Bit rate : 125 kb/s
Channel(s) : 2 channels
Channel positions : Front: L R
Sampling rate : 48.0 kHz
Frame rate : 46.875 FPS (1024 SPF)
Compression mode : Lossy
Stream size : 22.1 MiB (8%)
Language : Japanese
Default : No
Forced : No


Время раздачи: До первых сидов
[NNM-Club.name]_Made in Abyss [KANSAI].torrent
 Торрент:   Зарегистрирован
 
Зарегистрируйтесь и скачайте торрент!
11,5 KB

Примагнититься
 Зарегистрирован:   02 Окт 2017 01:29:11
 Размер:   4,13 GB  (
 Рейтинг:   4,6 (Голосов: 101)
 Поблагодарили:   363
 Проверка:   Оформление проверено модератором 02 Окт 2017 09:05:23
Как cкачать  ·  Как раздать  ·  Правильно оформить  ·  Поднять ратио!  
tiptop88
Стаж: 6 лет 8 мес.
Сообщений: 7
Ratio: 18,874
4.21%
а прикольно !
tanhorn
Стаж: 7 лет 5 мес.
Сообщений: 319
Ratio: 53,426
100%
Откуда: Capital
russia.gif
Начало хорошее.
И сюжет есть, а не бред воспаленных юношеских фантазий=)

_________________
Ergo bimbanus
IvanS​tardu​st​
Стаж: 7 лет 2 мес.
Сообщений: 34
Ratio: 2,368
10.4%
russia.gif
Клёво. Жду продолжения с нетерпением. Сайты говорят, что вторая серия выйдет 14 июля.
oblahhko
Стаж: 5 лет 4 мес.
Сообщений: 2
Ratio: 1,122
16.92%
russia.gif
Интересный сюжет)картинка тоже замечательная)
Denzel36
Стаж: 5 лет 3 мес.
Сообщений: 209
Ratio: 30,961
3.85%
Неожиданно приятное произведение. Благодарю.
Nates​talke​r​
Стаж: 6 лет 4 мес.
Сообщений: 14
Ratio: 4,28
Раздал: 787 GB
67.69%
В 4 серии нету субтитров
loliworlds
Стаж: 3 года 9 мес.
Сообщений: 321
Ratio: 411,086
Поблагодарили: 4235
100%
nnm-club.gif
Natestalker писал(а): Перейти к сообщению
В 4 серии нету субтитров

В описании нет про сабы ни слова. Тут русская озвучка. Внезапно! :подмигивание:
Другая раздача на клубе с сабами, сам хочу с сабами смотреть, но там не обновили еще, и это спустя неделю после выхода равки! :шок:
Ampho_DnB ®
RG Аниме
 
Стаж: 5 лет 9 мес.
Сообщений: 2561
Ratio: 180,158
Поблагодарили: 70840
100%
Откуда: дует?
roody.gif
Natestalker писал(а): Перейти к сообщению
В 4 серии нету субтитров

Описание читай, сабов там и не было, как и в 1-3 серии.
Nates​talke​r​
Стаж: 6 лет 4 мес.
Сообщений: 14
Ratio: 4,28
Раздал: 787 GB
67.69%
Ampho_DnB
Видимо раздачу перепутал. Была тут, с 3 сериями и... а в комменте сверху описали. Точно перепутал, мои извинения)
jtad
 
Стаж: 1 год 4 мес.
Сообщений: 126
Ratio: 6,202
100%
что сказать - я не любитель анимэ, но это нечто. Может потому, что природа каким-то образом похожа на "поселок" Булычева? Неужели наши не могут в таком стиле создать мульт по этому прекрасному рассказау - в этом мультике картины природы ну просто ПОРАЖАЮТ. Не дождусь следующей серии
poloten4eg
Стаж: 8 лет 7 мес.
Сообщений: 54
Ratio: 6,367
8.01%
Подскажите пожалуйста, где саундтрек взять, некоторые песни просто поразительны.
loliworlds
Стаж: 3 года 9 мес.
Сообщений: 321
Ratio: 411,086
Поблагодарили: 4235
100%
nnm-club.gif
poloten4eg писал(а): Перейти к сообщению
Подскажите пожалуйста, где саундтрек взять, некоторые песни просто поразительны.

Пока нет официального саундтрека, разве что самому нарезать из дорожки оригинальной.

_________________
В чем слушать DSD: в AudioGate, AIMP (в ASIO) || Обсуждение DSD
Если на моих раздачах нет сидов, стучите мне в ЛС
jtad
 
Стаж: 1 год 4 мес.
Сообщений: 126
Ratio: 6,202
100%
посоветуйте еще чтото похожее, все онгоинги которые я посмотрел уж слишком примитивны. А вот такие с ОБАЛДЕННЫМИ пейзажами есть еще?
jtad
 
Стаж: 1 год 4 мес.
Сообщений: 126
Ratio: 6,202
100%
отдельное спасибо автору за оповещения о новой серии в личку. Так бы и забыл
Показать сообщения:   
Начать новую тему   Ответить на тему    Торрент-трекер NNM-Club -> Аниме с озвучкой -> Аниме с озвучкой (HD) Часовой пояс: GMT + 3
Страницы:  1, 2, 3, 4, 5  След.
Страница 1 из 5