Интеллигентный торрент-трекер
canvas not supported
Нас вместе: 4 271 608

Дэвид Вебер | Честь королевы (2017) [m4b|AAC]


 
 
RSS
Начать новую тему   Ответить на тему    Торрент-трекер NNM-Club -> Аудио и Видео -> Аудиокниги (AAC)
Автор Сообщение
trybag ®
Стаж: 4 года 8 мес.
Сообщений: 97
Ratio: 13,536
Поблагодарили: 2673
100%
Дэвид Вебер | Честь королевы
Автор: Дэвид Вебер
Год: 2017
Жанр: Фантастика
Продолжительность: 16:01:38
Читает: Владимир Князев
Издательство: Аудиокниги Владимира Князева

Описание: Планета Грейсон обречена на гибель. Враги готовятся подвергнуть ее массированному удару с орбиты. Сопровождающая дипломатическую миссию небольшая эскадра мантикорских кораблей под командованием капитана Хонор Харрингтон вступает в неравный бой за планету.

Формат: M4B
Аудиокодек: AAC
Битрейт: 192 kbps
Частота: 44,1 KHz
Разбивка на части: есть
Разбивка на главы: есть
Вшитая обложка: есть
Музыкальное сопровождение: есть

1. Космическая станция «Василиск» / On Basilisk Station (1993)
2. Честь королевы / The Honor of the Queen (1994) - данный релиз
3. Маленькая победоносная война / The Short Victorious War (1994)
4. Поле бесчестья / Field of Dishonor (1994)
5. Флагман в изгнании / Flag in Exile (1995)
6. Меж двух огней / Honor Among Enemies (1996)
7. В руках врага / In Enemy Hands (1997)
8. Испытание Адом / Echoes of Honor (1998)
9. Пепел победы / Ashes of Victory (2001)
10. Война и честь / War of Honor (2002)
11. Любой ценой / At All Costs (2005)
12. Mission of Honor / Дело чести (2010)

Код: выделить все
Общее
Полное имя                               : Честь королевы 1.m4b
Формат                                   : MPEG-4
Профиль формата                          : Apple audio with iTunes position
Идентификатор кодека                     : M4B  (M4B /mp42)
Размер файла                             : 650 Мбайт
Продолжительность                        : 7 ч. 49 м.
Режим общего битрейта                    : Переменный
Общий поток                              : 194 Кбит/сек
Альбом                                   : Хонор Харрингтон
Альбом/Исполнитель                       : Дэвид Вебер
Часть/Положение                          : 2
Часть/Всего                              : 12
Трек                                     : Честь королевы 1
Трек/Положение                           : 1
Трек/Всего                               : 2
Исполнитель                              : Дэвид Вебер
Композитор                               : Владимир Князев
Жанр                                     : Фантастика
Дата записи                              : 2017
Дата кодирования                         : UTC 2017-07-08 09:24:38
Дата пометки                             : UTC 2017-07-08 09:25:56
Обложка                                  : Yes
©art                                     : Дэвид Вебер

Аудио
Идентификатор                            : 1
Формат                                   : AAC
Формат/Информация                        : Advanced Audio Codec
Профиль формата                          : LC
Идентификатор кодека                     : 40
Продолжительность                        : 7 ч. 49 м.
Вид битрейта                             : Переменный
Битрейт                                  : 192 Кбит/сек
Максимальный битрейт                     : 203 Кбит/сек
Каналы                                   : 2 канала
Расположение каналов                     : Front: L R
Частота                                  : 44,1 КГц
Частота кадров                           : 43,066 кадра/сек (1024 spf)
Метод сжатия                             : С потерями
Размер потока                            : 645 Мбайт (99%)
Дата кодирования                         : UTC 2017-07-08 09:24:38
Дата пометки                             : UTC 2017-07-08 09:25:56
Menus                                    : 2

Меню
Идентификатор                            : 2
Идентификатор кодека                     : text
Продолжительность                        : 7 ч. 49 м.
Язык                                     : English
Дата кодирования                         : UTC 2017-07-08 13:23:28
Дата пометки                             : UTC 2017-07-08 13:23:28
Menu For                                 : 1
00:00:00.000                             : Глава  1
00:45:37.237                             : Глава  2
01:06:10.380                             : Глава  3
01:35:08.115                             : Глава  4
01:56:39.307                             : Глава  5
02:26:01.492                             : Глава  6
02:47:58.482                             : Глава  7
03:13:05.642                             : Глава  8
03:55:18.777                             : Глава  9
04:16:44.861                             : Глава  10
04:48:44.965                             : Глава  11
05:14:45.091                             : Глава  12
05:35:31.422                             : Глава  13
05:53:05.585                             : Глава  14
06:42:22.182                             : Глава  15
07:06:56.231                             : Глава  16
07:19:21.777                             : Глава  17
Вид битрейта                             : VBR

Общее
Полное имя                               : Честь королевы 2.m4b
Формат                                   : MPEG-4
Профиль формата                          : Apple audio with iTunes position
Идентификатор кодека                     : M4B  (M4B /mp42)
Размер файла                             : 681 Мбайт
Продолжительность                        : 8 ч. 12 м.
Режим общего битрейта                    : Переменный
Общий поток                              : 194 Кбит/сек
Альбом                                   : Хонор Харрингтон
Альбом/Исполнитель                       : Дэвид Вебер
Часть/Положение                          : 2
Часть/Всего                              : 12
Трек                                     : Честь королевы 2
Трек/Положение                           : 2
Трек/Всего                               : 2
Исполнитель                              : Дэвид Вебер
Композитор                               : Владимир Князев
Жанр                                     : Фантастика
Дата записи                              : 2017
Дата кодирования                         : UTC 2017-07-08 09:40:35
Дата пометки                             : UTC 2017-07-08 09:41:45
Обложка                                  : Yes
©art                                     : Дэвид Вебер

Аудио
Идентификатор                            : 1
Формат                                   : AAC
Формат/Информация                        : Advanced Audio Codec
Профиль формата                          : LC
Идентификатор кодека                     : 40
Продолжительность                        : 8 ч. 12 м.
Продолжительность оригинала              : 8 ч. 12 м.
Вид битрейта                             : Переменный
Битрейт                                  : 192 Кбит/сек
Максимальный битрейт                     : 203 Кбит/сек
Каналы                                   : 2 канала
Расположение каналов                     : Front: L R
Частота                                  : 44,1 КГц
Частота кадров                           : 43,066 кадра/сек (1024 spf)
Метод сжатия                             : С потерями
Размер потока                            : 676 Мбайт (99%)
Размер потока оригинала                  : 676 Мбайт (99%)
Дата кодирования                         : UTC 2017-07-08 09:40:35
Дата пометки                             : UTC 2017-07-08 09:41:45
Menus                                    : 2

Меню
Идентификатор                            : 2
Идентификатор кодека                     : text
Продолжительность                        : 8 ч. 12 м.
Язык                                     : English
Дата кодирования                         : UTC 2017-07-08 13:24:41
Дата пометки                             : UTC 2017-07-08 13:24:41
Menu For                                 : 1
Продолжительность оригинала              : 29531858
Количество кадров оригинала              : 18
Размер потока оригинала                  : 504
Счётчик кадров                           : 18
Размер потока                            : 504
00:00:00.000                             : Глава  18
00:31:00.475                             : Глава  19
00:48:56.465                             : Глава  20
01:18:20.857                             : Глава  21
01:54:56.721                             : Глава  22
02:22:38.690                             : Глава  23
03:03:36.568                             : Глава  24
03:24:28.356                             : Глава  25
03:47:24.139                             : Глава  26
04:19:38.245                             : Глава  27
04:51:10.091                             : Глава  28
05:06:56.954                             : Глава  29
05:27:17.070                             : Глава  30
06:04:24.676                             : Глава  31
06:26:37.130                             : Глава  32
06:54:46.846                             : Глава  33
07:21:32.506                             : Глава  34
07:53:06.720                             : Глава  35
Вид битрейта                             : VBR

[NNM-Club.name]_CHest' korolevyi.torrent
 Торрент: Платиновая раздача  Зарегистрирован
 
Скачать


Примагнититься
 Зарегистрирован:   11 Июл 2017 16:15:15
 Размер:   1,3 GB  (
 Рейтинг:    (Голосов: 8)
 Поблагодарили:   35
 Проверка:   Оформление проверено модератором 12 Июл 2017 23:12:18
Как cкачать  ·  Как раздать  ·  Правильно оформить  ·  Поднять ратио!  
alexq​qq123​123​
Стаж: 7 лет 3 мес.
Сообщений: 353
Ratio: 31,808
23.44%
Хорошо что кто то озвучивать стал серию.
Показать сообщения:   
Начать новую тему   Ответить на тему    Торрент-трекер NNM-Club -> Аудио и Видео -> Аудиокниги (AAC) Часовой пояс: GMT + 3
Страница 1 из 1