Интеллигентный торрент-трекер
canvas not supported
Нас вместе: 4 303 535

Hogjaw - 5 альбомов (2008-2015) [FLAC|Lossless|image + .cue] <Southern Rock, Hard Rock>


 
 
RSS
Начать новую тему   Ответить на тему    Торрент-трекер NNM-Club -> Rock, Alternative, Punk, Metal -> Hard Rock (Lossless)
Автор Сообщение
gravegihar ®
Стаж: 2 года 7 мес.
Сообщений: 128
Ratio: 11,93
Поблагодарили: 2794
100%


Hogjaw - 5 альбомов (2008-2015)

Описание: Квартет бывших школьных друзей из Аризоны много гастролирует по всему миру, доставляя истинное удовольствие любителям Southern рока, да и хард-рока тоже. В сентябре они запланировали большщой тур по Испании в поддержку нового альбома Восхождение в горы. Достойные конкуренты Lynyrd Skynyrd, Molly Hatchet, Marshall Tucker Band и Charlie Daniels Band.. И играют по-своему.



Жанр: Southern Rock, Hard Rock | Страна: Peoria, Arizona, USA | | Продолжительность: 04:06:57 | Кодек: FLAC | Битрейт: Lossles | Тип рипа: image + .cue | Издание/ Лейбл: Swampjawbeamusic L.L.C. | Номер по каталогу: none


Описание: Квартет бывших школьных друзей из Аризоны много гастролирует по всему миру, доставляя истинное удовольствие любителям Southern рока, да и хард-рока тоже. В сентябре они запланировали большщой тур по Испании в поддержку нового альбома Восхождение в горы. Достойные конкуренты Lynyrd Skynyrd, Molly Hatchet, Marshall Tucker Band и Charlie Daniels Band.. И играют по-своему.

Треклист:
Список альбомов:
2008 - Devil in the Details
2010 - Ironwood
2012 - Sons Of The Western Skies
2013 - If It Ain't Broke
2015 - Rise to the Mountains


Страна-производитель диска: US
Особенность релиза: Digipak
Наличие сканов: да, полные
Источник (релизер): Гордый
Трeклист:
--------------------------

01. 4Lo (3:50)
02. Elcamino (3:32)
03. Before Monday Come (4:27)
04. The Fog (6:05)
05. Gitsum (5:14)
06. East Bound And Down (2:50)
07. Swamp (6:18)
08. This Whiskey (7:03)
09. Junga (4:33)
10. Cheap Whiskey (3:32)
[CUETools log; Date: 07.07.2017 22:03:47; Version: 2.1.5]
[CTDB TOCID: RgtIgJ_cLSKSu9neurrcIAm.gek-] found.
Track | CTDB Status
1 | (10/10) Accurately ripped
2 | (10/10) Accurately ripped
3 | (10/10) Accurately ripped
4 | (10/10) Accurately ripped
5 | (10/10) Accurately ripped
6 | (10/10) Accurately ripped
7 | (10/10) Accurately ripped
8 | (10/10) Accurately ripped
9 | (10/10) Accurately ripped
10 | (10/10) Accurately ripped
[AccurateRip ID: 00115d6d-008d6804-720b1b0a] found.
Track [ CRC | V2 ] Status
01 [2759ac3a|49e37ac0] (03+00/10) Accurately ripped
02 [ee2b611b|d681e515] (03+00/10) Accurately ripped
03 [7d6afb84|5487ce82] (03+00/10) Accurately ripped
04 [dc0f65e3|745ac48a] (03+00/10) Accurately ripped
05 [f74ac60d|c1f5d49d] (03+00/10) Accurately ripped
06 [d19d5642|fa15bb9c] (03+00/10) Accurately ripped
07 [5af6617c|d9a9fad4] (03+00/10) Accurately ripped
08 [525efb85|5782bdb2] (03+00/10) Accurately ripped
09 [0aa7eb1c|890caf72] (03+00/10) Accurately ripped
10 [539f74d9|ff9dadd1] (03+00/08) Accurately ripped
Offsetted by -664:
01 [445c5561] (00/10) No match (V2 was not tested)
02 [6c4dcccc] (00/10) No match (V2 was not tested)
03 [c606cdd8] (00/10) No match (V2 was not tested)
04 [011f5124] (00/10) No match (V2 was not tested)
05 [b78001b9] (00/10) No match (V2 was not tested)
06 [035298cc] (00/10) No match (V2 was not tested)
07 [e2618d74] (00/10) No match (V2 was not tested)
08 [3321df0d] (00/10) No match (V2 was not tested)
09 [8e218b11] (00/10) No match (V2 was not tested)
10 [756c9ec5] (00/08) No match (V2 was not tested)
Offsetted by -628:
01 [10f961bb] (02/10) Accurately ripped
02 [dea6bac1] (02/10) Accurately ripped
03 [f7df9c42] (02/10) Accurately ripped
04 [d136b96d] (02/10) Accurately ripped
05 [249f29b6] (02/10) Accurately ripped
06 [423fc82d] (02/10) Accurately ripped
07 [6ad74e74] (02/10) Accurately ripped
08 [1640db44] (02/10) Accurately ripped
09 [77a20049] (02/10) Accurately ripped
10 [e09659f0] (00/08) No match (V2 was not tested)

Track Peak [ CRC32 ] [W/O NULL] [ LOG ]
-- 100,0 [673FEAFE] [DE1DB123] CRC32
01 100,0 [DDE66AB4] [16BAAA0A]
02 100,0 [EB1024E8] [674474B9]
03 100,0 [86B24DF5] [C540B361]
04 99,3 [D41DC8C3] [73311017]
05 100,0 [ACFAD788] [60E9E27B]
06 100,0 [6C4FE818] [D0884F50]
07 100,0 [76309EF5] [3156ECB4]
08 100,0 [8955C64B] [817D2F50]
09 100,0 [106DF4FF] [3E30B5FE]
10 91,2 [342A5AE0] [84185EC2]
Прoдолжительность: 00:47:24
Страна-производитель диска: US
Особенность релиза: Digipak
Наличие сканов: да, полные
Источник (релизер): Гордый
Трeклист:
--------------------------

01. Rollin Thunder (5:17)
02. Blacktop (4:59)
03. Three Fifty Seven (4:00)
04. Ol' Slippery Willie (3:45)
05. County Line (6:32)
06. Ain't Ever Gonna Win (Without A Little Bit Of Sin) (6:30)
07. Two Guns (4:57)
08. Walkin (5:07)
09. Flathead (4:32)
10. Hornswogglin (4:17)
[CUETools log; Date: 07.07.2017 22:19:19; Version: 2.1.5]
[CTDB TOCID: eTgnrL.I78VRsaxqGMDtzBo_f2k-] found.
Track | CTDB Status
1 | (4/4) Accurately ripped
2 | (4/4) Accurately ripped
3 | (4/4) Accurately ripped
4 | (4/4) Accurately ripped
5 | (4/4) Accurately ripped
6 | (4/4) Accurately ripped
7 | (4/4) Accurately ripped
8 | (4/4) Accurately ripped
9 | (4/4) Accurately ripped
10 | (4/4) Accurately ripped
[AccurateRip ID: 0012f6a7-009840be-910bb40a] found.
Track [ CRC | V2 ] Status
01 [711f6771|82eab765] (05+05/10) Accurately ripped
02 [d56d6108|b4896676] (05+05/10) Accurately ripped
03 [58feb162|1900f695] (05+05/10) Accurately ripped
04 [e50eb0f9|86970e23] (05+05/10) Accurately ripped
05 [8536ae81|38640fc9] (05+05/10) Accurately ripped
06 [2d68001d|8688a429] (05+05/10) Accurately ripped
07 [51bea0e9|b763f85a] (05+05/10) Accurately ripped
08 [4bcfe35d|75f1ab42] (05+05/10) Accurately ripped
09 [2e56a0b4|f92f7a1d] (05+05/10) Accurately ripped
10 [12e22ec4|bea1fac8] (05+05/10) Accurately ripped

Track Peak [ CRC32 ] [W/O NULL] [ LOG ]
-- 100,0 [8F5415F8] [51331515] CRC32
01 100,0 [98D80A20] [6B7E985B]
02 100,0 [467E8D49] [96572D93]
03 100,0 [18C8D9C2] [A149FAD7]
04 100,0 [082D1D3C] [D22DDE33]
05 100,0 [33F5901B] [8DFB3A57]
06 100,0 [D30EAD81] [C6664552]
07 100,0 [B8BABE83] [C230043C]
08 100,0 [A0632C6C] [450DAEA9]
09 100,0 [9BD16CEF] [3330FA34]
10 97,7 [4E42BB30] [46AA8A41]
Прoдолжительность: 00:49:57
Страна-производитель диска: US
Особенность релиза: Digipak
Наличие сканов: да, полные
Источник (релизер): Someone Else
Трeклист:
--------------------------

01. Spoonfed (3:24)
02. Hells Half Home of Mine (3:39)
03. Road of Fools (3:37)
04. Six Shots (4:33)
05. Everyone's Goin Fishin (4:40)
06. Look to the Sky (8:38)
07. Mainstream Trucker (18 Wheeler mix) (4:28)
08. Midnight Run to Cleator (3:19)
09. Dirty Woman (3:42)
10. The Sum of All Things (7:08)
[CUETools log; Date: 07.07.2017 22:41:11; Version: 2.1.5]
[CTDB TOCID: eGkG3geyjJSWVpVft2Vdt9.t4s8-] found.
Track | CTDB Status
1 | (8/8) Accurately ripped
2 | (8/8) Accurately ripped
3 | (8/8) Accurately ripped
4 | (8/8) Accurately ripped
5 | (8/8) Accurately ripped
6 | (8/8) Accurately ripped
7 | (8/8) Accurately ripped
8 | (8/8) Accurately ripped
9 | (8/8) Accurately ripped
10 | (8/8) Accurately ripped
[AccurateRip ID: 001091c6-0087ab95-750b0d0a] found.
Track [ CRC | V2 ] Status
01 [66a5c9ee|3dc69c6d] (0+3/3) Accurately ripped
02 [8e7ba68b|3b487fe6] (0+3/3) Accurately ripped
03 [a99cadab|0153da99] (0+3/3) Accurately ripped
04 [ec0c7ab8|bbde6e8f] (0+3/3) Accurately ripped
05 [774df563|8205b326] (0+3/3) Accurately ripped
06 [c827c73c|8fb3bbaf] (0+3/3) Accurately ripped
07 [3f3aee07|575040a5] (0+3/3) Accurately ripped
08 [b85712e6|4fabc44d] (0+3/3) Accurately ripped
09 [522764e3|a6f51e19] (0+3/3) Accurately ripped
10 [184d6510|63fa08d3] (0+3/3) Accurately ripped

Track Peak [ CRC32 ] [W/O NULL] [ LOG ]
-- 100,0 [A5E41ACD] [E20CE916] W/O NULL
01 100,0 [618E5DED] [14B6AE10]
02 100,0 [E8A3711A] [55153822]
03 100,0 [DA7518AD] [C88C0AA1]
04 100,0 [9DB0B702] [45B55715]
05 100,0 [7514997A] [79D3D7FC]
06 100,0 [B440B4EF] [E3079AA2]
07 100,0 [494033ED] [064770BC]
08 100,0 [BE78C2DA] [DCF8E1A8]
09 100,0 [25FBC13D] [E27C5322]
10 100,0 [AD27F615] [78AEE660]
Прoдолжительность: 00:47:09
Страна-производитель диска: US
Особенность релиза: Digipak
Наличие сканов: да, полные
Источник (релизер): Someone Else
Трeклист:
--------------------------

01. One More Little One (4:53)
02. Built My Prize (5:05)
03. Am I Wrong? (5:22)
04. Shiny Brass (6:01)
05. Cold Dead Fingers (4:46)
06. The Wolf, Part I (4:50)
07. The Wolf, Part II (5:41)
08. Devil's Eyes (4:24)
09. '83 (4:29)
10. Beer Guzzlin' Merican (4:15)
[CUETools log; Date: 07.07.2017 22:55:44; Version: 2.1.5]
[CTDB TOCID: lad.SynhG0TEBbkCHjGm6OST4xI-] found.
Track | CTDB Status
1 | (5/5) Accurately ripped
2 | (5/5) Accurately ripped
3 | (5/5) Accurately ripped
4 | (5/5) Accurately ripped
5 | (5/5) Accurately ripped
6 | (5/5) Accurately ripped
7 | (5/5) Accurately ripped
8 | (5/5) Accurately ripped
9 | (5/5) Accurately ripped
10 | (5/5) Accurately ripped
[AccurateRip ID: 001353f8-009a3010-9f0ba90a] found.
Track [ CRC | V2 ] Status
01 [0b8901c7|3460345e] (0+2/2) Accurately ripped
02 [f8045ae7|1e054991] (0+2/2) Accurately ripped
03 [f4028a40|f80d770a] (0+2/2) Accurately ripped
04 [05314db2|d7ddee60] (0+2/2) Accurately ripped
05 [be54c62f|10f3123d] (0+2/2) Accurately ripped
06 [57bd05fa|e2404161] (0+2/2) Accurately ripped
07 [08b4b980|7e946cfd] (0+2/2) Accurately ripped
08 [19c0975f|396404cb] (0+2/2) Accurately ripped
09 [4c7d1713|312d7bdd] (0+2/2) Accurately ripped
10 [19c68628|e7b17be4] (0+2/2) Accurately ripped

Track Peak [ CRC32 ] [W/O NULL] [ LOG ]
-- 100,0 [4267340F] [88842C59] W/O NULL
01 99,8 [F8C03836] [644A79EC]
02 98,2 [904E7383] [2FF31279]
03 97,9 [23FBD7F9] [59F5E4D7]
04 97,9 [B91138E8] [06AD28F6]
05 99,0 [4E8A6B1C] [62D62F5C]
06 100,0 [D81CF970] [0B8CD0C7]
07 97,9 [F77BB283] [4E009A85]
08 98,2 [69F48BD3] [88CAA153]
09 98,2 [A2866D7A] [AD073CAB]
10 97,5 [E8F4141A] [C3376927]
Прoдолжительность: 00:49:46
Страна-производитель диска: RU
SНаличие сканов: да, полные
Источник (релизер): HaRD
Трeклист:
--------------------------

01. Rise to the Mountains (7:33)
02. Leavin Out the Backside (5:39)
03. Over for You Know It (3:19)
04. Where Have You Gone (4:49)
05. I Will Remain (8:34)
06. Fire, Fuel & Air (5:02)
07. Another Day (4:27)
08. Second to None (4:25)
09. The Smoker (3:35)
10. Grey Skies (5:20)
[CUETools log; Date: 07.07.2017 23:09:50; Version: 2.1.5]
[CTDB TOCID: AesHoyjje5Idbo8Jvp77cb5A8tw-] found.
Track | CTDB Status
1 | (7/7) Accurately ripped
2 | (7/7) Accurately ripped
3 | (7/7) Accurately ripped
4 | (7/7) Accurately ripped
5 | (7/7) Accurately ripped
6 | (7/7) Accurately ripped
7 | (2/7) Accurately ripped, or (5/7) differs in 3 samples @04:17:37
8 | (7/7) Accurately ripped
9 | (7/7) Accurately ripped
10 | (7/7) Accurately ripped
[AccurateRip ID: 00150d85-00a5b4de-9e0c580a] found.
Track [ CRC | V2 ] Status
01 [19f54d51|9a9381e6] (0+2/2) Accurately ripped
02 [928463aa|46c89e3e] (0+2/2) Accurately ripped
03 [cc3701f9|6a9a006c] (0+2/2) Accurately ripped
04 [05ed6dfb|22f48172] (0+2/2) Accurately ripped
05 [7e5d5498|58f0cd3e] (0+2/2) Accurately ripped
06 [c2318551|80abebad] (0+2/2) Accurately ripped
07 [9da54355|99b21cc5] (0+2/2) Accurately ripped
08 [07825662|6c029093] (0+2/2) Accurately ripped
09 [8b9f414d|e1fa062c] (0+2/2) Accurately ripped
10 [d3b53103|82217d8f] (0+2/2) Accurately ripped

Track Peak [ CRC32 ] [W/O NULL] [ LOG ]
-- 100,0 [263DBA96] [7AA6BDBA] CRC32
01 100,0 [6FE75083] [A5D6AA76]
02 100,0 [54A7A9E5] [C82E61AB]
03 100,0 [EA89F6F8] [2A5DC3F5]
04 100,0 [64703B03] [C27CB817]
05 99,7 [0C2D29BD] [9D9600B3]
06 100,0 [9039253C] [772B25C7]
07 100,0 [80AECFF6] [3259802F]
08 100,0 [EF14374D] [FFB6B91E]
09 100,0 [93D0E3CC] [D0E308C5]
10 96,6 [71D7B450] [A22F34CB]
Прoдолжительность: 00:52:41
DR7 / DR6 / DR8 / DR8 / DR8

YouTubeYouTubeYouTubeYouTubeYouTubeYouTubeYouTubeYouTube



Like a Four wheel Drive, Hogjaw, have taken the off-road into the music industry head-on. Blazing they’re own trail of rock & roll, Hogjaw, have brought back the sound of pure listening. Cranking tunes and bringing music back for the people that can be understood by all walks. With vocals telling stories, guitars blazing & drums thundering: Hogjaw’s record's are going to come at you like a freight train of sound! Hailing from the desert land of Arizona – Hogjaw is bringing in the rock from the Southwest. The quartet includes; Jonboat Jones (vocals/guitar), Kreg Self (lead guitar), Elvis DD (Bass) & J. "Kwall" Kowalski (drums) deliver a dose of genuine rocking goodness.

Hogjaw was formed in late 2006 through the power of jamming..." when we realized what we had, it just snowballed." Everyone in the band is standing friends from High School and with one common goal, rockin, it became easy for the music to develop. With years of playing in label bands, touring afar, and playing beat-up acoustic guitars in and around the hills, these guys find their talents on a way of their own. It is spoken through the songs...and with support from everyone surrounding Hogjaw....things couldn’t be better for the group!

The band has had the opportunity to spend most of 2009 & 2010, traveling the states playing music from: Major events, to playing Clubs and Bars with acts like; Cowboy Mouth, Ratt, Helmet, Valient Thorr to Railbenders, Gin Blossoms, Jimmy Van Zant, etc. The album " Devil in the Details" was in the top sales for ‘08 &‘09 at CDBABY.com... they’re videos have been in the top 10 at "OurStage.com" and also the record has been picked up by many European & English distributors with turn around sales. Locally the group recently had their CD acknowledged as top 5 record of the year by "you asked for it" at the Phoenix New times... Also with a nomination in the hard rock category for the Phoenix new times "summer of sound" concert series ‘09.

Now with the 2nd installment of the Hogjaw catalog, "Ironwood." Two years after the first release ("Devil in the Details") the band is still on course. Singing songs that define the artists and keeping true to what they stand for. The sophomore record shows more growth from the quartet, which is what you would expect a group to do...

Give them both a spin and we hope you dig it as much as we all do in the HG camp...Cheers to everyone and look forward to hearing back some feedback!!! Lastly, we will say this...if you dig the music, please tell your friends (including; radio stations, magazine reviewers, etc) to check it out like you have... it would be greatly appreciated. To the grass roots movement of independent music!

Hogjaw Band Are:

- Jonboat Jones / Vocals, Guitars
- Kreg Self / Lead Guitars
- Elvis DD / Bass
- Kwall / Drums
Producer – Byron "the Master" Filson, Hogjaw

Hogjaw Discography:

2008 Devil in the Details
2010 Ironwood
2012 Sons of the Western Skies
2013 If It Ain’t Broke…
2015 Rise to the Mountains
2017 Way Down Yonder


home page
myspace
facebook
discogs
puresouthernrock
clubamdonnerstag
spirit-of-metal
[NNM-Club.name]_HOGJAW.torrent
 Торрент: Платиновая раздача  Зарегистрирован
 
Скачать


Примагнититься
 Зарегистрирован:   12 Июл 2017 13:23:27
 Размер:   1,92 GB  (
 Рейтинг:    (Голосов: 5)
 Поблагодарили:   30
 Проверка:   Оформление проверено модератором 12 Июл 2017 15:34:26
Как cкачать  ·  Как раздать  ·  Правильно оформить  ·  Поднять ратио!  
Показать сообщения:   
Начать новую тему   Ответить на тему    Торрент-трекер NNM-Club -> Rock, Alternative, Punk, Metal -> Hard Rock (Lossless) Часовой пояс: GMT + 3
Страница 1 из 1