Интеллигентный торрент-трекер
canvas not supported
Нас вместе: 4 313 342

Shoukoku no Altair / Altair: A Record of Battles / Альтаир: На Пороге Войны [2017, TV, 4 из 12] WEB-DL 720p Raw+Rus


 
 
RSS
Начать новую тему   Ответить на тему    Торрент-трекер NNM-Club -> Аниме с озвучкой -> Онгоинги с озвучкой
Автор Сообщение
Ampho_DnB ®
RG Аниме
 
Стаж: 5 лет 7 мес.
Сообщений: 4214
Ratio: 181,029
Поблагодарили: 68824
100%
Откуда: дует?
roody.gif
Shoukoku no Altair / Altair: A Record of Battles / Альтаир: На Пороге Войны
Жанр: драма, сёнен, приключения, исторический, фантастика
Тип: TV-сериал
Продолжительность: 4 из 12 эпизодов по 25 минут
Выпуск: c 08.07.2017
Автор: Като Котоно
Снято по манге: Shoukoku no Altair
Режиссер: Фурухаси Кадзухиро
Производство: MAPPA
Информационные ссылки: AniDB || World Art || MAL || ANN
Релиз подготовлен студией Kansai
  • Тип озвучки: Многоголосая, закадровая

Описание:
Тогрул Махмуд - юный паша, преданно служащий своей стране, над которой начинают сгущаться тучи войны из-за угрозы нападения со стороны агрессивно настроенной Империи. Да и внутри государства не все гладко, население разделилось на пацифистов и тех, кто жаждет войны.

Махмуд отправляется в поход, чтобы сохранить мир любой ценой. Всё глубже и глубже погружаясь в политические интриги древнего мира, он обретает как друзей так и врагов. Но кто возьмёт вверх? И что сделает Махмуд, если война станет станет неизбежна?
Качество: WEB-DLRip | Энкод: HorribleSubs
Язык озвучки: Японский и Русский
Формат: MKV
Видео: x264, 1280x720, ~1 776 kbps, 23.976 fps
Аудио: AAC, 128 kbps, 44.1 kHz, 2 ch
Аудио: AAC, 192 kbps, 48.0 kHz, 2 ch
01. The Golden Eagle General
02. The Citadel City
03. The Council of Generals
04. The Eagle`s Joint Struggle
General
Unique ID : 172692840681027957504021886427470569913 (0x81EB6E69FF471F71873E6D78EAC921B9)
Complete name : Shoukoku no Altair [KANSAI]\[KANSAI] Shoukoku no Altair - 01 [720p].mkv
Format : Matroska
Format version : Version 4 / Version 2
File size : 373 MiB
Duration : 24 min 2 s
Overall bit rate mode : Variable
Overall bit rate : 2 169 kb/s
Encoded date : UTC 2017-07-17 20:58:45
Writing application : mkvmerge v13.0.0 ('The Juggler') 64bit
Writing library : libebml v1.3.4 + libmatroska v1.4.5

Video
ID : 1
Format : AVC
Format/Info : Advanced Video Codec
Format profile : High@L3.1
Format settings, CABAC : Yes
Format settings, RefFrames : 5 frames
Codec ID : V_MPEG4/ISO/AVC
Duration : 24 min 2 s
Bit rate mode : Variable
Bit rate : 1 852 kb/s
Maximum bit rate : 4 500 kb/s
Width : 1 280 pixels
Height : 720 pixels
Display aspect ratio : 16:9
Frame rate mode : Constant
Frame rate : 23.976 (24000/1001) FPS
Color space : YUV
Chroma subsampling : 4:2:0
Bit depth : 8 bits
Scan type : Progressive
Bits/(Pixel*Frame) : 0.084
Stream size : 318 MiB (85%)
Language : Japanese
Default : Yes
Forced : No
Color range : Limited
Color primaries : BT.709
Transfer characteristics : BT.709
Matrix coefficients : BT.709

Audio #1
ID : 2
Format : AAC
Format/Info : Advanced Audio Codec
Format profile : LC
Codec ID : A_AAC
Duration : 24 min 2 s
Bit rate : 192 kb/s
Channel(s) : 2 channels
Channel positions : Front: L R
Sampling rate : 48.0 kHz
Frame rate : 46.875 FPS (1024 SPF)
Compression mode : Lossy
Stream size : 32.6 MiB (9%)
Language : Russian
Default : Yes
Forced : No

Audio #2
ID : 3
Format : AAC
Format/Info : Advanced Audio Codec
Format profile : LC
Codec ID : A_AAC
Duration : 24 min 2 s
Bit rate : 125 kb/s
Channel(s) : 2 channels
Channel positions : Front: L R
Sampling rate : 48.0 kHz
Frame rate : 46.875 FPS (1024 SPF)
Compression mode : Lossy
Stream size : 21.6 MiB (6%)
Language : Japanese
Default : No
Forced : No


Время раздачи: До первых сидов
[NNM-Club.name]_Shoukoku no Altair [KANSAI].torrent
 Торрент:   Зарегистрирован
 
Зарегистрируйтесь и скачайте торрент!
13,8 KB
Free Leech
Примагнититься
 Зарегистрирован:   04 Авг 2017 01:38:03
 Размер:   1,32 GB  (
 Рейтинг:    (Голосов: 8)
 Поблагодарили:   19
 Проверка:   Оформление проверено модератором 04 Авг 2017 10:24:11
Как cкачать  ·  Как раздать  ·  Правильно оформить  ·  Поднять ратио!  
Ampho_DnB ®
RG Аниме
 
Стаж: 5 лет 7 мес.
Сообщений: 4214
Ratio: 181,029
Поблагодарили: 68824
100%
Откуда: дует?
roody.gif
Торрент полностью обновлен. Добавлена 2 серия.
Ampho_DnB ®
RG Аниме
 
Стаж: 5 лет 7 мес.
Сообщений: 4214
Ratio: 181,029
Поблагодарили: 68824
100%
Откуда: дует?
roody.gif
Торрент обновлен. Добавлена 3 серия.
Ampho_DnB ®
RG Аниме
 
Стаж: 5 лет 7 мес.
Сообщений: 4214
Ratio: 181,029
Поблагодарили: 68824
100%
Откуда: дует?
roody.gif
Торрент обновлен. Добавлена 4 серия.
Показать сообщения:   
Начать новую тему   Ответить на тему    Торрент-трекер NNM-Club -> Аниме с озвучкой -> Онгоинги с озвучкой Часовой пояс: GMT + 3
Страница 1 из 1