Интеллигентный торрент-трекер
canvas not supported
Нас вместе: 4 314 862

Ballroom e Youkoso / Welcome to the Ballroom / Добро пожаловать на паркет [2017, TV, 5 из 24] HDTV 720p Raw+Rus


 
 
RSS
Начать новую тему   Ответить на тему    Торрент-трекер NNM-Club -> Аниме с озвучкой -> Онгоинги с озвучкой
Автор Сообщение
Ampho_DnB ®
RG Аниме
 
Стаж: 5 лет 7 мес.
Сообщений: 4195
Ratio: 181,742
Поблагодарили: 68656
100%
Откуда: дует?
roody.gif
Ballroom e Youkoso / Welcome to the Ballroom / Добро пожаловать на паркет
Жанр: комедия, романтика, драма, школа, сёнэн
Тип: TV-сериал
Продолжительность: 5 из 24 эпизодов по 25 минут
Выпуск: c 09.07.2017
Автор: Такэути Томо
Снято по манге: Ballroom e Youkoso
Режиссер: Итадзу Ёсими
Производство: Production I.G
Информационные ссылки: AniDB || World Art || MAL || ANN
Релиз подготовлен студией Студийная Банда
  • Тип озвучки: Многоголосая, закадровая

Описание:
Обучение в средней школе уже подходило к концу, а Татара Фуджита до сих пор не имел понятия о том, чем ему хочется заниматься в этой жизни. И пока его одноклассники уже строили планы о том, в какую старшую школу им поступить, он всё ещё смутно представлял, куда ему двигаться дальше. Так бы он и провёл остаток времени в раздумьях и сомнениях, если бы не один случай, который коренным образом изменил его дальнейшую жизнь.

Однажды на улице к Фуджите прицепились хулиганы и начали вымогать у него деньги. Всё закончилось бы плачевно, если бы не вмешался человек на мотоцикле. Им оказался учитель бальных танцев Канамэ Сенгоку. Ошибочно подумав, что Фуджита рассматривал рекламу его студии танцев Огасавара, Сенгоку потащил парня в зал. Очарованный страстью учителя к своему делу, Фуджита решается на пробный урок. Встретив там свою одноклассницу Шизуку, он понимает, что в танце та становится совершенно другим человеком. Фуджита начинает восхищаться её целеустремлённостью, и это приводит его в мир спортивных бальных танцев, полный соревнований и любви к искусству!
Качество: HDTVRip | Энкод: Leopard-Raws
Язык озвучки: Японский и Русский
Формат: MKV
Видео: x264, 1280x720, ~1 786 kbps, 23.976 fps
Аудио: AAC, 168 kbps, 48.0 kHz, 2 ch
Аудио: AAC, 192 kbps, 48.0 kHz, 2 ch
01. Welcome to Ogasawara Dance Studio
02. Kiyoharu Hyodo
03. Dance the Waltz
04. Dancer`s High
05. Partners
General
Unique ID : 203107568464998491872095355896125950797 (0x98CD18451089759CBBE4C784FB538B4D)
Complete name : Ballroom e Youkoso [StudioBand]\[StudioBand] Ballroom e Youkoso - 01 [720p].mkv
Format : Matroska
Format version : Version 4 / Version 2
File size : 376 MiB
Duration : 24 min 29 s
Overall bit rate : 2 149 kb/s
Encoded date : UTC 2017-07-17 22:56:06
Writing application : mkvmerge v13.0.0 ('The Juggler') 64bit
Writing library : libebml v1.3.4 + libmatroska v1.4.5

Video
ID : 1
Format : AVC
Format/Info : Advanced Video Codec
Format profile : High@L4.1
Format settings, CABAC : Yes
Format settings, RefFrames : 4 frames
Codec ID : V_MPEG4/ISO/AVC
Duration : 24 min 29 s
Bit rate : 1 786 kb/s
Width : 1 280 pixels
Height : 720 pixels
Display aspect ratio : 16:9
Frame rate mode : Constant
Frame rate : 23.976 (24000/1001) FPS
Color space : YUV
Chroma subsampling : 4:2:0
Bit depth : 8 bits
Scan type : Progressive
Bits/(Pixel*Frame) : 0.081
Stream size : 313 MiB (83%)
Writing library : x264 core 129 r2245+729M 1a52e03
Encoding settings : cabac=1 / ref=4 / deblock=1:1:-1 / analyse=0x3:0x113 / me=umh / subme=9 / psy=1 / fade_compensate=0.00 / psy_rd=1.00:0.00 / mixed_ref=1 / me_range=24 / chroma_me=1 / trellis=2 / 8x8dct=1 / cqm=0 / deadzone=21,11 / fast_pskip=1 / chroma_qp_offset=-2 / threads=8 / lookahead_threads=1 / sliced_threads=0 / nr=0 / decimate=1 / interlaced=0 / bluray_compat=0 / constrained_intra=0 / fgo=0 / bframes=9 / b_pyramid=2 / b_adapt=2 / b_bias=0 / direct=1 / weightb=1 / open_gop=0 / weightp=2 / keyint=240 / keyint_min=24 / scenecut=40 / intra_refresh=0 / rc=crf / mbtree=0 / crf=18.5 / qcomp=0.72 / qpmin=0 / qpmax=69 / qpstep=4 / ip_ratio=1.40 / pb_ratio=1.30 / aq=1:0.85
Language : Japanese
Default : Yes
Forced : No
Color range : Limited
Color primaries : BT.709
Transfer characteristics : BT.709
Matrix coefficients : BT.709

Audio #1
ID : 2
Format : AAC
Format/Info : Advanced Audio Codec
Format profile : LC
Codec ID : A_AAC
Duration : 24 min 29 s
Bit rate : 168 kb/s
Channel(s) : 2 channels
Channel positions : Front: L R
Sampling rate : 48.0 kHz
Frame rate : 46.875 FPS (1024 SPF)
Compression mode : Lossy
Stream size : 29.4 MiB (8%)
Language : Russian
Default : Yes
Forced : No

Audio #2
ID : 3
Format : AAC
Format/Info : Advanced Audio Codec
Format profile : LC
Codec ID : A_AAC
Duration : 24 min 29 s
Bit rate : 192 kb/s
Channel(s) : 2 channels
Channel positions : Front: L R
Sampling rate : 48.0 kHz
Frame rate : 46.875 FPS (1024 SPF)
Compression mode : Lossy
Stream size : 33.6 MiB (9%)
Language : Japanese
Default : No
Forced : No


Время раздачи: До первых сидов
[NNM-Club.name]_Ballroom e Youkoso [StudioBand].torrent
 Торрент:   Зарегистрирован
 
Зарегистрируйтесь и скачайте торрент!
19,6 KB

Примагнититься
 Зарегистрирован:   06 Авг 2017 01:22:23
 Размер:   1,89 GB  (
 Рейтинг:   4,3 (Голосов: 11)
 Поблагодарили:   22
 Проверка:   Оформление проверено модератором 06 Авг 2017 15:29:35
Как cкачать  ·  Как раздать  ·  Правильно оформить  ·  Поднять ратио!  
Ampho_DnB ®
RG Аниме
 
Стаж: 5 лет 7 мес.
Сообщений: 4195
Ratio: 181,742
Поблагодарили: 68656
100%
Откуда: дует?
roody.gif
Торрент обновлен. Добавлена 2 серия.
Ampho_DnB ®
RG Аниме
 
Стаж: 5 лет 7 мес.
Сообщений: 4195
Ratio: 181,742
Поблагодарили: 68656
100%
Откуда: дует?
roody.gif
Торрент обновлен. Добавлена 3 серия.
Ampho_DnB ®
RG Аниме
 
Стаж: 5 лет 7 мес.
Сообщений: 4195
Ratio: 181,742
Поблагодарили: 68656
100%
Откуда: дует?
roody.gif
Торрент обновлен. Добавлена 4 серия.
Ampho_DnB ®
RG Аниме
 
Стаж: 5 лет 7 мес.
Сообщений: 4195
Ratio: 181,742
Поблагодарили: 68656
100%
Откуда: дует?
roody.gif
Торрент обновлен. Добавлена 5 серия.
Показать сообщения:   
Начать новую тему   Ответить на тему    Торрент-трекер NNM-Club -> Аниме с озвучкой -> Онгоинги с озвучкой Часовой пояс: GMT + 3
Страница 1 из 1