Интеллигентный торрент-трекер
canvas not supported
Нас вместе: 4 311 654

Princess Principal / Принцесса Принципал [2017, TV, 6 из 12] HDTV 720p Raw+Rus


 
 
RSS
Начать новую тему   Ответить на тему    Торрент-трекер NNM-Club -> Аниме с озвучкой -> Онгоинги с озвучкой
Автор Сообщение
Ampho_DnB ®
RG Аниме
 
Стаж: 5 лет 7 мес.
Сообщений: 4215
Ratio: 181,079
Поблагодарили: 68865
100%
Откуда: дует?
roody.gif
Princess Principal / Принцесса Принципал
Жанр: приключения, экшен
Тип: TV-сериал
Продолжительность: 6 из 12 эпизодов по 25 минут
Выпуск: c 09.07.2017 по 24.09.2017
Сценарий: Окоти Итиро
Режиссер: Татибана Масаки
Производство: Studio 3Hz, ACTAS, Inc.
Информационные ссылки: AniDB || World Art || MAL || ANN
Релиз подготовлен студией Студийная банда
  • Тип озвучки: Многоголосая, закадровая

Описание:
Повествование переносит нас в конец 19-го века. Огромная стена разделила Лондон, столицу Королевства Альбион, на две части: Запад и Восток. В городе царила напряжённая обстановка, и было решено доверить работу шпионок пятерым девчонкам, ученицам благородной школы имени Королевы Мэйфэр. Обладая нужными для шпионажа навыками, с этого момента школьницы начали жить двойной жизнью, полной обмана и тайн.

Анж оказалась гениальной шпионкой, проявив свои навыки артистизма. Дороти взяла на себя роль лидера, умелого водителя и стрелка. Не гнушается она и соблазнить свою цель, чтобы достать нужные сведения. Японка Чисе, которая учится в Альбионе по обмену, может похвастаться своим маленьким ростом и отличным навыком владения мечом. Не осталась в стороне и сама принцесса Королевства Альбион, а также её верная помощница Беатрис. Вместе они стали настоящей командой, чьи суровые будни наполнились постоянной маскировкой, разведыванием информации, взломами и погонями! Присоединяйтесь к опасным приключениям отважных девушек!
Качество: HDTVRip | Энкод: Leopard-Raws
Язык озвучки: Японский и Русский
Формат: MKV
Видео: x264, 1280x720, ~2 201 kbps, 23.976 fps
Аудио: AAC, 175 kbps, 48.0 kHz, 2 ch
Аудио: AAC, 192 kbps, 48.0 kHz, 2 ch
01. Case13 Wired Liar
02. Dancy Conspiracy
03. Vice Voice
04. Roaming Pigeons
05. Bullet & Blade`s Ballad
06. Rouge Morgue
General
Unique ID : 244302928974309890105023578087497460324 (0xB7CB085B2E5C77CB8C958A7EEF08EA64)
Complete name : Princess Principal [StudioBand]\[Studio Band] Princess Principal - 01 [720р].mkv
Format : Matroska
Format version : Version 4 / Version 2
File size : 451 MiB
Duration : 25 min 4 s
Overall bit rate : 2 516 kb/s
Encoded date : UTC 2017-07-19 22:27:14
Writing application : mkvmerge v13.0.0 ('The Juggler') 64bit
Writing library : libebml v1.3.4 + libmatroska v1.4.5

Video
ID : 1
Format : AVC
Format/Info : Advanced Video Codec
Format profile : High@L4.1
Format settings, CABAC : Yes
Format settings, RefFrames : 4 frames
Codec ID : V_MPEG4/ISO/AVC
Duration : 24 min 29 s
Bit rate : 2 201 kb/s
Width : 1 280 pixels
Height : 720 pixels
Display aspect ratio : 16:9
Frame rate mode : Constant
Frame rate : 23.976 (24000/1001) FPS
Color space : YUV
Chroma subsampling : 4:2:0
Bit depth : 8 bits
Scan type : Progressive
Bits/(Pixel*Frame) : 0.100
Stream size : 386 MiB (85%)
Writing library : x264 core 129 r2245+729M 1a52e03
Encoding settings : cabac=1 / ref=4 / deblock=1:1:-1 / analyse=0x3:0x113 / me=umh / subme=9 / psy=1 / fade_compensate=0.00 / psy_rd=1.00:0.00 / mixed_ref=1 / me_range=24 / chroma_me=1 / trellis=2 / 8x8dct=1 / cqm=0 / deadzone=21,11 / fast_pskip=1 / chroma_qp_offset=-2 / threads=8 / lookahead_threads=1 / sliced_threads=0 / nr=0 / decimate=1 / interlaced=0 / bluray_compat=0 / constrained_intra=0 / fgo=0 / bframes=9 / b_pyramid=2 / b_adapt=2 / b_bias=0 / direct=1 / weightb=1 / open_gop=0 / weightp=2 / keyint=240 / keyint_min=24 / scenecut=40 / intra_refresh=0 / rc=crf / mbtree=0 / crf=18.5 / qcomp=0.72 / qpmin=0 / qpmax=69 / qpstep=4 / ip_ratio=1.40 / pb_ratio=1.30 / aq=1:0.85
Language : Japanese
Default : Yes
Forced : No
Color range : Limited
Color primaries : BT.709
Transfer characteristics : BT.709
Matrix coefficients : BT.709

Audio #1
ID : 2
Format : AAC
Format/Info : Advanced Audio Codec
Format profile : LC
Codec ID : A_AAC
Duration : 25 min 4 s
Bit rate : 175 kb/s
Channel(s) : 2 channels
Channel positions : Front: L R
Sampling rate : 48.0 kHz
Frame rate : 46.875 FPS (1024 SPF)
Compression mode : Lossy
Stream size : 31.4 MiB (7%)
Language : Russian
Default : Yes
Forced : No

Audio #2
ID : 3
Format : AAC
Format/Info : Advanced Audio Codec
Format profile : LC
Codec ID : A_AAC
Duration : 24 min 29 s
Bit rate : 192 kb/s
Channel(s) : 2 channels
Channel positions : Front: L R
Sampling rate : 48.0 kHz
Frame rate : 46.875 FPS (1024 SPF)
Compression mode : Lossy
Stream size : 33.6 MiB (7%)
Language : Japanese
Default : No
Forced : No


Время раздачи: До первых сидов
[NNM-Club.name]_Princess Principal [StudioBand].torrent
 Торрент:   Зарегистрирован
 
Зарегистрируйтесь и скачайте торрент!
13,1 KB
Free Leech
Примагнититься
 Зарегистрирован:   18 Авг 2017 01:58:01
 Размер:   2,46 GB  (
 Рейтинг:   3,3 (Голосов: 13)
 Поблагодарили:   27
 Проверка:   Оформление проверено модератором 18 Авг 2017 09:02:28
Как cкачать  ·  Как раздать  ·  Правильно оформить  ·  Поднять ратио!  
ElSwanko
Куратор Аниме
Модератор Музыки
Стаж: 10 лет 11 мес.
Сообщений: 10685
Ratio: 554,488
Поблагодарили: 39809
100%
Откуда: ур-пр​остра​нство​ преко​нтину​ума​
roody.gif
Ampho_DnB писал(а): Перейти к сообщению
Принцесса Принципал

Мои глаза Т_Т
Амфо, убей пожалуйста этих пиривотчиков? И выкинь эту поделку, замени нормальным переводом.

_________________
Правила: Аниме, Манга, OST || Музыка
Помощь: Скриншоты || MediaInfo || auCDtect
Ampho_DnB ®
RG Аниме
 
Стаж: 5 лет 7 мес.
Сообщений: 4215
Ratio: 181,079
Поблагодарили: 68865
100%
Откуда: дует?
roody.gif
ElSwanko
Перевод нормальный, а вот с названием я согласен :D
ElSwanko
Куратор Аниме
Модератор Музыки
Стаж: 10 лет 11 мес.
Сообщений: 10685
Ratio: 554,488
Поблагодарили: 39809
100%
Откуда: ур-пр​остра​нство​ преко​нтину​ума​
roody.gif
Ampho_DnB
Поправь тогда хоть на тот, что в гиде прописан (или на один из тех, что у меня прописаны). Этот вариант уж совсем за гранью добра и зла. И постер тоже.

_________________
Правила: Аниме, Манга, OST || Музыка
Помощь: Скриншоты || MediaInfo || auCDtect
Ampho_DnB ®
RG Аниме
 
Стаж: 5 лет 7 мес.
Сообщений: 4215
Ratio: 181,079
Поблагодарили: 68865
100%
Откуда: дует?
roody.gif
Торрент обновлен. Добавлена 2 серия.
Ampho_DnB ®
RG Аниме
 
Стаж: 5 лет 7 мес.
Сообщений: 4215
Ratio: 181,079
Поблагодарили: 68865
100%
Откуда: дует?
roody.gif
Торрент обновлен. Добавлена 3 серия.
Ampho_DnB ®
RG Аниме
 
Стаж: 5 лет 7 мес.
Сообщений: 4215
Ratio: 181,079
Поблагодарили: 68865
100%
Откуда: дует?
roody.gif
Торрент обновлен. Добавлена 4 серия.
Ampho_DnB ®
RG Аниме
 
Стаж: 5 лет 7 мес.
Сообщений: 4215
Ratio: 181,079
Поблагодарили: 68865
100%
Откуда: дует?
roody.gif
Торрент обновлен. Добавлена 5 серия.
Ampho_DnB ®
RG Аниме
 
Стаж: 5 лет 7 мес.
Сообщений: 4215
Ratio: 181,079
Поблагодарили: 68865
100%
Откуда: дует?
roody.gif
Торрент обновлен. Добавлена 6 серия.
Показать сообщения:   
Начать новую тему   Ответить на тему    Торрент-трекер NNM-Club -> Аниме с озвучкой -> Онгоинги с озвучкой Часовой пояс: GMT + 3
Страница 1 из 1