Интеллигентный торрент-трекер
canvas not supported
Нас вместе: 4 273 765

Graveyard - 4 альбома (2007-2015) [FLAC|Lossless|image + .cue] <Psychedelic Rock, Stoner, Blues Rock>


 
 
RSS
Начать новую тему   Ответить на тему    Торрент-трекер NNM-Club -> Rock, Alternative, Punk, Metal -> Hard Rock (Lossless)
Автор Сообщение
gravegihar ®
Стаж: 2 года 9 мес.
Сообщений: 178
Ratio: 13,874
Поблагодарили: 4292
100%
Graveyard - 4 альбома (2007-2015)



Описание: Graveyard — шведская хард-рок-группа из Гётеборга, основанная в 2006 году, играющая в жанре стоунер, блюз-рок, с примесями психоделического рока. Дебютный одноименный альбом был выпущен 10 сентября в 2007 году в Шведции, 25 Марта 2011 года на лейбле Nuclear Blast вышел второй альбом группы, Hisingen Blues. Альбом был тепло встречен критиками, а также находился в датском чарте Tracklisten 18 недель и поднимался до 1-го места. 26 октября 2012 года вышел третий альбом, Lights Out. Новая пластинка получила название Innocence & Decadence и вышла 25 сентября 2015 года



Жанр: Psychedelic Rock, Stoner, Blues Rock | Страна: Gothenburg, Sweden | Продолжительность: 02:41:34 | Кодек: FLAC | Битрейт: Lossles | Тип рипа: image + .cue



Graveyard — шведская хард-рок-группа из Гётеборга, основанная в 2006 году, играющая в жанре стоунер, блюз-рок, с примесями психоделического рока. Дебютный одноименный альбом был выпущен 10 сентября в 2007 году в Шведции, 25 Марта 2011 года на лейбле Nuclear Blast вышел второй альбом группы, Hisingen Blues. Альбом был тепло встречен критиками, а также находился в датском чарте Tracklisten 18 недель и поднимался до 1-го места. 26 октября 2012 года вышел третий альбом, Lights Out. Новая пластинка получила название Innocence & Decadence и вышла 25 сентября 2015 года.


Треклист:
Список альбомов:
2007 - Graveyard
2011 - Hisingen Blues
2012 - Sons Of The Western Skies
2012 - Lights Out
2015 - Innocence & Decadence


Номер по каталогу: TPE-081
Особенность релиза: Digipak
Наличие сканов: да, полные
Источник (релизер): gfrr.railroad/ ed2k
Трeклист:
--------------------------

01. Evil Ways (3:28)
02. Thin line (5:24)
03. Lost in Confusion (3:24)
04. Dont take us for fools (4:01)
05. Blue soul (6:17)
06. Submarine Blues (2:25)
07. As the years pass by the hours bend (4:41)
08. Right is wrong (4:27)
09. Satans finest (5:32)
[CUETools log; Date: 28.02.2017 23:52:55; Version: 2.1.5]
[CTDB TOCID: F8Es7_0my5.qqz86YZfKVrbr.5Q-] found.
Track | CTDB Status
1 | (28/28) Accurately ripped
2 | (28/28) Accurately ripped
3 | (28/28) Accurately ripped
4 | (28/28) Accurately ripped
5 | (28/28) Accurately ripped
6 | (28/28) Accurately ripped
7 | (28/28) Accurately ripped
8 | (23/28) Accurately ripped
9 | (28/28) Accurately ripped
[AccurateRip ID: 000d2b38-0061213e-73094909] found.
Track [ CRC | V2 ] Status
01 [5fcbf1c5|fa21b38a] (05+26/33) Accurately ripped
02 [77c49831|0c820d11] (05+26/33) Accurately ripped
03 [c35a6896|35fcfe06] (05+25/32) Accurately ripped
04 [514047a2|513d52c8] (05+25/32) Accurately ripped
05 [e10dc20f|4f98b21e] (05+27/34) Accurately ripped
06 [7d9efb98|66883159] (05+27/34) Accurately ripped
07 [b1ebc32e|08302dad] (05+27/34) Accurately ripped
08 [71b01646|1f94281c] (03+26/31) Accurately ripped
09 [374e8683|c4e6b228] (05+26/34) Accurately ripped
Offsetted by 6:
01 [148375a4] (00/33) No match (V2 was not tested)
02 [68192209] (00/33) No match (V2 was not tested)
03 [80d12a28] (00/32) No match (V2 was not tested)
04 [8a745f95] (00/32) No match (V2 was not tested)
05 [d0aa8776] (00/34) No match (V2 was not tested)
06 [0613dfae] (00/34) No match (V2 was not tested)
07 [c08bc22d] (00/34) No match (V2 was not tested)
08 [de8674cd] (00/31) No match (V2 was not tested)
09 [29884f6c] (00/34) No match (V2 was not tested)

Track Peak [ CRC32 ] [W/O NULL] [ LOG ]
-- 98,7 [D4C24184] [C06BC943] CRC32
01 98,7 [05D52494] [EA2F5CD3]
02 98,7 [07DFF9BB] [30781B39]
03 98,7 [72244BD8] [3117585F]
04 98,7 [0A230108] [2265CB9A]
05 98,7 [B595036D] [BF105ADB]
06 98,7 [EE89C0EB] [5C6ACD12]
07 98,7 [F57BE48A] [EA26A895]
08 98,7 [F0124A60] [BF8BCBDE]
09 98,7 [DA46CA76] [5CB26796]
Прoдолжительность: 00:39:37
Номер по каталогу: NB 2716-0, 27361 27160
Наличие сканов: да, полные
Источник (релизер): gravegihar
Трeклист:
--------------------------

01. Ain't fit to live here (3:06)
02. Mr Holden (4:47)
03. Hisingen Blues (4:13)
04. Uncomfortably numb (6:11)
05. Buying truth (tack & fцrlеt) (3:27)
06. Longing (4:49)
07. Ungrateful are the dead (3:10)
08. Rss (3:49)
09. The Siren (6:01)
10. Cooking Brew (4:06)
Прoдолжительность: 00:43:38
Номер по каталогу: NB 2963-2
Наличие сканов: да, полные
Источник (релизер): gravegihar
Трeклист:
--------------------------

01. An Industry Of Murder (4:02)
02. Slow Motion Countdown (5:35)
03. Seven Seven (2:33)
04. The Suits The Law & The Unif (4:51)
05. Endless Night (2:46)
06. Hard Times Lovin' (4:27)
07. Goliath (2:50)
08. Fool In The End (3:32)
09. 2020 (Tunnel Vision) (5:00)
Прoдолжительность: 00:35:36
Номер по каталогу: NB 3564-2, 27361 35642
Наличие сканов: да, полные
Источник (релизер): gravegihar
Трeклист:
--------------------------

01. Magnetic Shunk (3:02)
02. The Apple And The Tree (3:05)
03. Exit 97 (3:51)
04. Never Theirs To Sell (2:16)
05. Can't Walk Out (5:44)
06. Too Much Is Not Enough (4:38)
07. From A Hole In The Wall (3:48)
08. Cause & Defect (3:48)
09. Hard-Headed (3:12)
10. Far Too Close (4:43)
11. Stay For A Song (4:36)
Прoдолжительность: 00:42:43
YouTubeYouTubeYouTubeYouTubeYouTubeYouTubeYouTubeYouTube



Йоаким Нильсон, Рикард Эдланд (ранее выступали в составе группы Norrsken), Аксель Шёберг и Трулс Мёрк создали Graveyard в 2007 году. Когда Norrsken распалась в 2000 году, гитарист Магнус Пеландер участвовал в формировании дум-фолк-метал-группы Witchcraft, а Нильсон и Эдланд присоединились к Albatross, блюз-рок-группе, в чей состав также входил барабанщик Аксель Шёберг. Изначально Albatross была задумана, как хобби-проект, но после пяти лет существования группы, её члены начали относиться к музыке более серьёзно и высказывать неудовлетворение к направлению, которое они выбрали. После распада Albatross, Нильсон и Эдланд решили, что для их следующего опыта они должны вернуть свои корни, как гитариста и вокалиста. Нильсон пояснил, "Я певец, но в Albatross я играл только на гитаре. Рикард тоже играл на гитаре, но он бас-гитарист. Мы также хотели более прямолинейной музыки" Вместе с Шёбергом и гитаристом/вокалистом Трулсом Мёрком она начали играть, как Graveyard. С этим составом Graveyard быстро записали две демозаписи, сыграли три концерта и начали планировать целый альбом с шведским лейблом, Transubstans Records. В то же время они запостили демозаписи на MySpace. Эти песни со страницы в MySpace приглянулись Tony Presedo, основатель TeePee Records. Их одноименный дебютный альбом записанный Доном Альстербергом и выпущенный в начале 2008 года. При завершении записи Трулс Мёрк был заменен гитаристом Юнатоном Ларока-Раммом. Первый альбом получил в большинстве хорошие оценки.

Graveyard впервые съездили в США на фестиваль SXSW. После SXSW Graveyard выступали в туре вместе со своими лейбл-партнерами Witch. В конце 2008 года Graveyard также выступали с Witchcraft и Clutch. В 2009 же с рок-группой CKY.

25 Марта 2011 года на лейбле Nuclear Blast вышел второй альбом группы, Hisingen Blues. Альбом был тепло встречен критиками, а также находился в датском чарте Tracklisten 18 недель и поднимался до 1-го места. 26 октября вышел третий альбом, Lights Out.

В пятницу, 23 Сентября 2016 года, группа объявила о распаде: "all so classic reasons"



GRAVEYARD Are:

Current members:

- Joakim Nilsson / guitar, vocals
- Jonatan Larocca-Ramm / guitar, vocals
- Axel Sjöberg / drums
- Truls Mörck / bass, vocals


Former members:

- Rikard Edlund / bass

facebook
myspace
ru.wikipedia
en.wikipedia
discogs
nuclearblast



Поглощение/вытеснение
Только с согласия релизера

Bigbeer
[NNM-Club.name]_GRAVEYARD.torrent
 Торрент: Платиновая раздача  Зарегистрирован
 
Скачать


Примагнититься
 Зарегистрирован:   23 Июл 2017 07:06:06
 Размер:   1,21 GB  (
 Рейтинг:   4,9 (Голосов: 11)
 Поблагодарили:   54
 Проверка:   Оформление проверено модератором 23 Июл 2017 17:40:59
Как cкачать  ·  Как раздать  ·  Правильно оформить  ·  Поднять ратио!  
Показать сообщения:   
Начать новую тему   Ответить на тему    Торрент-трекер NNM-Club -> Rock, Alternative, Punk, Metal -> Hard Rock (Lossless) Часовой пояс: GMT + 3
Страница 1 из 1