Интеллигентный торрент-трекер
canvas not supported
Нас вместе: 4 313 200

Hajimete no Gal / My First Girlfriend is a Gal / Моя первая гяру [2017, TV, 6 из 10] HDTV 720p Raw+Rus [18+]


 
 
RSS
Начать новую тему   Ответить на тему    Торрент-трекер NNM-Club -> Аниме с озвучкой -> Онгоинги с озвучкой
Автор Сообщение
Ampho_DnB ®
RG Аниме
 
Стаж: 5 лет 7 мес.
Сообщений: 4214
Ratio: 180,939
Поблагодарили: 68783
100%
Откуда: дует?
roody.gif
Hajimete no Gal / My First Girlfriend is a Gal / Моя первая гяру
Жанр: романтика, комедия, этти, сёнен, школа
Тип: TV-сериал
Продолжительность: 6 из 10 эпизодов по 25 минут
Выпуск: c 12.07.2017 по 13.09.2017
Автор: Уэно Мэгуру
Снято по манге: Hajimete no Gal
Режиссер: Фурукава Хироюки
Производство: NAZ
Информационные ссылки: AniDB || World Art || MAL || ANN
Релиз подготовлен студией Студийная Банда
  • Тип озвучки: Многоголосая, закадровая

Описание:
В школе народ обычно делится на две категории. В первой - задроты и ботаники, а во второй народ попроще, без закидонов. Обычным ребятам, которые не испытывают никаких трудностей с общением, проще простого найти себе пару и как следует насладиться первой юношеской любовью. У задротов и ботаников с этим дело обстоит на порядок хуже, но ведь они такие же люди, а значит гормоны бьют ключом. Но им остаётся лишь мечтать и фантазировать об отношениях с противоположным полом, ведь обычная девушка в их сторону если и посмотрит, то только с презрением.

Шестнадцатилетний Джуничи Хашиба как раз в таком возрасте. Ему бы уроки делать, да к экзаменам готовиться, а он только и думает о том, как бы ему девственности побыстрее лишиться. Добрые друзья решили подколоть его и буквально заставили признаться в любви их красивой однокласснице-гяру Юкане Ямэ. Но кто бы мог подумать, что она действительно согласится встречаться с ним! Фантазии Джуничи наконец начинают сбываться, но непонятно, сладкий ли это сон или же жуткий кошмар.
Качество: HDTVRip | Энкод: Ohys-Raws
Язык озвучки: Японский и Русский
Формат: MKV
Видео: x264, 1280x720, ~1 537 kbps, 23.976 fps
Аудио: AAC, 192 kbps, 48.0 kHz, 2 ch
Аудио: AAC, 168 kbps, 48.0 kHz, 2 ch
01. My First Time Begging for It
02. My First Karaoke
03. My First Spray-On Gal
04. My First Serious Gal
05. My First Half-Assed Gal
06. My First Time at Yame-san`s House
General
Unique ID : 192384922989369804016764972117530828525 (0x90BBFD080119F87AAF846D3BFE40DEED)
Complete name : Hajimete no Gal [StudioBand]\[StudioBand] Hajimete no Gal - 01 [720р].mkv
Format : Matroska
Format version : Version 4 / Version 2
File size : 326 MiB
Duration : 24 min 5 s
Overall bit rate : 1 894 kb/s
Encoded date : UTC 2017-07-24 17:48:59
Writing application : mkvmerge v14.0.0 ('Flow') 64bit
Writing library : libebml v1.3.4 + libmatroska v1.4.5

Video
ID : 1
Format : AVC
Format/Info : Advanced Video Codec
Format profile : Main@L4.1
Format settings, CABAC : Yes
Format settings, RefFrames : 4 frames
Codec ID : V_MPEG4/ISO/AVC
Duration : 24 min 0 s
Bit rate : 1 537 kb/s
Width : 1 280 pixels
Height : 720 pixels
Display aspect ratio : 16:9
Frame rate mode : Constant
Frame rate : 23.976 (24000/1001) FPS
Color space : YUV
Chroma subsampling : 4:2:0
Bit depth : 8 bits
Scan type : Progressive
Bits/(Pixel*Frame) : 0.070
Stream size : 264 MiB (81%)
Writing library : x264 core 152 r2851+58 429492e t_mod_Custom [8-bit@all X86_64]
Encoding settings : cabac=1 / ref=3 / deblock=1:0:0 / analyse=0x1:0x111 / me=hex / subme=7 / psy=1 / fade_compensate=0.00 / psy_rd=1.00:0.00 / mixed_ref=1 / me_range=16 / chroma_me=1 / trellis=1 / 8x8dct=0 / cqm=0 / deadzone=21,11 / fast_pskip=1 / chroma_qp_offset=-2 / threads=12 / lookahead_threads=2 / sliced_threads=0 / nr=0 / decimate=1 / interlaced=0 / bluray_compat=0 / constrained_intra=0 / fgo=0 / bframes=3 / b_pyramid=2 / b_adapt=1 / b_bias=0 / direct=1 / weightb=1 / open_gop=0 / weightp=2 / keyint=240 / keyint_min=1 / scenecut=40 / intra_refresh=0 / rc_lookahead=40 / rc=crf / mbtree=1 / crf=20.0000 / qcomp=0.60 / qpmin=0:0:0 / qpmax=69:69:69 / qpstep=4 / ip_ratio=1.40 / aq=1:1.50 / aq-sensitivity=10.00 / aq-factor=1.00:1.00:1.00 / aq2=0 / aq3=0
Language : Japanese
Default : Yes
Forced : Yes
Color range : Limited
Color primaries : BT.709
Transfer characteristics : BT.709
Matrix coefficients : BT.709

Audio #1
ID : 2
Format : AAC
Format/Info : Advanced Audio Codec
Format profile : LC
Codec ID : A_AAC
Duration : 24 min 5 s
Bit rate : 168 kb/s
Channel(s) : 2 channels
Channel positions : Front: L R
Sampling rate : 48.0 kHz
Frame rate : 46.875 FPS (1024 SPF)
Compression mode : Lossy
Stream size : 29.0 MiB (9%)
Language : Russian
Default : Yes
Forced : No

Audio #2
ID : 3
Format : AAC
Format/Info : Advanced Audio Codec
Format profile : LC
Codec ID : A_AAC
Duration : 24 min 0 s
Bit rate : 192 kb/s
Channel(s) : 2 channels
Channel positions : Front: L R
Sampling rate : 48.0 kHz
Frame rate : 46.875 FPS (1024 SPF)
Compression mode : Lossy
Stream size : 33.0 MiB (10%)
Language : Japanese
Default : No
Forced : No


Время раздачи: До первых сидов
[NNM-Club.name]_Hajimete no Gal [StudioBand].torrent
 Торрент:   Зарегистрирован
 
Зарегистрируйтесь и скачайте торрент!
11,1 KB
Free Leech
Примагнититься
 Зарегистрирован:   20 Авг 2017 02:16:57
 Размер:   2,06 GB  (
 Рейтинг:   3,9 (Голосов: 17)
 Поблагодарили:   69
 Проверка:   Оформление проверено модератором 20 Авг 2017 02:39:53
Как cкачать  ·  Как раздать  ·  Правильно оформить  ·  Поднять ратио!  
Ampho_DnB ®
RG Аниме
 
Стаж: 5 лет 7 мес.
Сообщений: 4214
Ratio: 180,939
Поблагодарили: 68783
100%
Откуда: дует?
roody.gif
Торрент обновлен. Добавлена 2 серия.
Qawer20
Стаж: 7 лет 1 мес.
Сообщений: 586
Ratio: 1,358
70.93%
andorra.gif
18+ зацензурино или нет ? Все темы раскрыты ? :D
Ampho_DnB ®
RG Аниме
 
Стаж: 5 лет 7 мес.
Сообщений: 4214
Ratio: 180,939
Поблагодарили: 68783
100%
Откуда: дует?
roody.gif
Qawer20 писал(а): Перейти к сообщению
18+ зацензурино или нет ? Все темы раскрыты ? :D

Без цензуры.
Shant​iSnyd​er​
Стаж: 8 лет 11 мес.
Сообщений: 906
Ratio: 44,932
Поблагодарили: 89
100%
Откуда: Apple
ukraine.gif
Qawer20 писал(а): Перейти к сообщению
18+ зацензурино или нет ? Все темы раскрыты ? :D

Да там нечего цензурить. Так, баловство. Даже Futari Ecchi в свои годы был откровеннее.

_________________
С зоной ведь так:с хабаром вернулся - чудо, живой вернулся - удача,патрульная пуля мимо - везенье, а все остальное - судьба.
Ampho_DnB ®
RG Аниме
 
Стаж: 5 лет 7 мес.
Сообщений: 4214
Ratio: 180,939
Поблагодарили: 68783
100%
Откуда: дует?
roody.gif
Торрент обновлен. Добавлена 3 серия.
Ampho_DnB ®
RG Аниме
 
Стаж: 5 лет 7 мес.
Сообщений: 4214
Ratio: 180,939
Поблагодарили: 68783
100%
Откуда: дует?
roody.gif
Торрент обновлен. Добавлена 4 серия.
Ampho_DnB ®
RG Аниме
 
Стаж: 5 лет 7 мес.
Сообщений: 4214
Ratio: 180,939
Поблагодарили: 68783
100%
Откуда: дует?
roody.gif
Торрент обновлен. Добавлена 5 серия.
fenume
Стаж: 10 лет 2 мес.
Сообщений: 217
Ratio: 42,579
Поблагодарили: 1513
100%
Откуда: Украина
ukraine.gif
А сабы то где? Раз уж оставляете оригинальную дорожку(за что спасибо!) так и сабы стоит добавить.
Ampho_DnB ®
RG Аниме
 
Стаж: 5 лет 7 мес.
Сообщений: 4214
Ratio: 180,939
Поблагодарили: 68783
100%
Откуда: дует?
roody.gif
fenume писал(а): Перейти к сообщению
А сабы то где? Раз уж оставляете оригинальную дорожку(за что спасибо!) так и сабы стоит добавить.

А зачем вы тогда заходите в раздел с озвучкой, если хотите смотреть с сабами?
Komeldes
Стаж: 2 года 9 мес.
Сообщений: 7
Ratio: 233,565
100%
Ampho_DnB, за других не скажу, но, например, "Busou Shoujo Machiavellianism" есть только у Вас. Да и некоторые другие раздачи лично я дёргал именно как "всё в одном" - какой вариант языка/озвучки/сабов нужен - тот и выставил. Не надо несколько разных раздач тащить и разбираться со сведением.
fenume
Стаж: 10 лет 2 мес.
Сообщений: 217
Ratio: 42,579
Поблагодарили: 1513
100%
Откуда: Украина
ukraine.gif
Ampho_DnB
К сожалению иногда нужное мне качество попадается только в этом разделе. И не нужно сразу агрится - ничего плохого про озвучку я не говорил. Просто я не вижу смысла оставлять оригинальную дорожку и не добавлять при этом сабы, получается абсолютно бесполезный расход трафика.
Ampho_DnB ®
RG Аниме
 
Стаж: 5 лет 7 мес.
Сообщений: 4214
Ratio: 180,939
Поблагодарили: 68783
100%
Откуда: дует?
roody.gif
fenume
Начиная с этого онгоинг сезона я создаю раздачу только с озвучкой, только студийную (за исключением некоторых, но этого больше не повториться), и без сабов. Сабы можно найти в соответствующем разделе на трекере или на "всем известном сайте с сабами"

Добавлено спустя 1 час 33 минуты 5 секунд:

Торрент обновлен. Добавлена 6 серия.
Показать сообщения:   
Начать новую тему   Ответить на тему    Торрент-трекер NNM-Club -> Аниме с озвучкой -> Онгоинги с озвучкой Часовой пояс: GMT + 3
Страница 1 из 1