Интеллигентный торрент-трекер
canvas not supported
Нас вместе: 4 216 433

The Reflection Wave One / Отражение [2017, TV, 12 ep] WEB-DL 720p Raw+Rus


 
 
RSS
Начать новую тему   Ответить на тему    Торрент-трекер NNM-Club -> Аниме с озвучкой -> Аниме с озвучкой (HD)
Автор Сообщение
Ampho_DnB ®
RG Аниме
Uploader 100+
 
Стаж: 6 лет
Сообщений: 2864
Ratio: 200,147
Поблагодарили: 73640
100%
Откуда: дует?
roody.gif
The Reflection Wave One / Отражение
Жанр: приключения
Тип: TV-сериал
Продолжительность: 12 эпизодов по 25 минут
Выпуск: c 22.07.2017 по 07.10.2017
Автор: Стэн Ли
Режиссер: Нагахама Хироси
Производство: Studio DEEN
Информационные ссылки: AniDB || World Art || MAL || ANN
Релиз подготовлен студией Kansai
  • Тип озвучки: Многоголосая, закадровая

Описание:
Спустя три года после катастрофы над людьми нависла новая угроза. Во время акции памяти погибших в Нью-Йорке, обладатели новой силы совершили теракт. Кому-то придётся противостоять тем, чей разум поглотила тьма, и некая группа людей решила взять на себя это тяжкое бремя. Во главе группы Эксон - неуловимый герой, чьё прошлое и возраст неизвестны. Ему помогают Айгай, умеющий нападать на врага с помощью голоса; Элеонора, перемещающаяся мгновенно на короткие расстояния; а также Лиза, чьё инвалидное кресло превращается в гигантского робота. Для того, чтобы искоренить зло, им придётся сначала докопаться до природы феномена "Отражения” и понять, почему целью стали именно люди.
Качество: WEB-DLRip | Энкод: HorribleSubs
Язык озвучки: Японский и Русский
Формат: MKV
Видео: x264, 1280x720, ~1 776 kbps, 23.976 fps
Аудио: AAC, 128 kbps, 44.1 kHz, 2 ch
Аудио: AAC, 192 kbps, 48.0 kHz, 2 ch
01. Ceremony
02. Survivor
03. Lisa
04. New Orleans
05. Vy and Michael
06. San Antonio
07. Team I-Guy
08. Beef or Fish
09. Downtown L.A
10. Eleanor
11. White Sands
12. The Reflection
General
Unique ID : 218229745189495635995106135669542281492 (0xA42D852561A2250C9C92669EE89CE114)
Complete name : The Reflection [KANSAI]\[KANSAI] The Reflection - 01 [720p].mkv
Format : Matroska
Format version : Version 4 / Version 2
File size : 372 MiB
Duration : 25 min 0 s
Overall bit rate : 2 080 kb/s
Encoded date : UTC 2017-07-24 20:47:15
Writing application : mkvmerge v14.0.0 ('Flow') 64bit
Writing library : libebml v1.3.4 + libmatroska v1.4.5

Video
ID : 1
Format : AVC
Format/Info : Advanced Video Codec
Format profile : High@L4
Format settings, CABAC : Yes
Format settings, RefFrames : 6 frames
Codec ID : V_MPEG4/ISO/AVC
Duration : 25 min 0 s
Bit rate : 1 776 kb/s
Width : 1 280 pixels
Height : 720 pixels
Display aspect ratio : 16:9
Frame rate mode : Variable
Frame rate : 23.976 (23976/1000) FPS
Color space : YUV
Chroma subsampling : 4:2:0
Bit depth : 8 bits
Scan type : Progressive
Bits/(Pixel*Frame) : 0.080
Stream size : 315 MiB (85%)
Writing library : x264 core 120 r2120 0c7dab9
Encoding settings : cabac=1 / ref=6 / deblock=1:1:1 / analyse=0x3:0x113 / me=umh / subme=8 / psy=1 / psy_rd=0.40:0.00 / mixed_ref=1 / me_range=16 / chroma_me=1 / trellis=1 / 8x8dct=1 / cqm=0 / deadzone=21,11 / fast_pskip=1 / chroma_qp_offset=-2 / threads=4 / sliced_threads=0 / nr=0 / decimate=1 / interlaced=0 / bluray_compat=0 / constrained_intra=0 / bframes=3 / b_pyramid=2 / b_adapt=2 / b_bias=0 / direct=3 / weightb=1 / open_gop=0 / weightp=2 / keyint=250 / keyint_min=23 / scenecut=40 / intra_refresh=0 / rc_lookahead=50 / rc=2pass / mbtree=1 / bitrate=1776 / ratetol=1.0 / qcomp=0.60 / qpmin=0 / qpmax=69 / qpstep=4 / cplxblur=20.0 / qblur=0.5 / vbv_maxrate=3552 / vbv_bufsize=8880 / nal_hrd=none / ip_ratio=1.40 / aq=1:0.60
Language : Japanese
Default : Yes
Forced : No

Audio #1
ID : 2
Format : AAC
Format/Info : Advanced Audio Codec
Format profile : LC
Codec ID : A_AAC
Duration : 25 min 0 s
Bit rate : 192 kb/s
Channel(s) : 2 channels
Channel positions : Front: L R
Sampling rate : 48.0 kHz
Frame rate : 46.875 FPS (1024 SPF)
Compression mode : Lossy
Stream size : 33.9 MiB (9%)
Language : Russian
Default : Yes
Forced : No

Audio #2
ID : 3
Format : AAC
Format/Info : Advanced Audio Codec
Format profile : LC
Codec ID : A_AAC
Duration : 25 min 0 s
Bit rate : 128 kb/s
Channel(s) : 2 channels
Channel positions : Front: L R
Sampling rate : 44.1 kHz
Frame rate : 43.066 FPS (1024 SPF)
Compression mode : Lossy
Stream size : 22.9 MiB (6%)
Language : Japanese
Default : No
Forced : No


Время раздачи: До первых сидов
[NNM-Club.name]_The Reflection [KANSAI].torrent
 Торрент: Платиновая раздача  Зарегистрирован
 
Скачать


Примагнититься
 Зарегистрирован:   13 Окт 2017 01:14:48
 Размер:   4,35 GB  (
 Рейтинг:   4,3 (Голосов: 29)
 Поблагодарили:   76
 Проверка:   Оформление проверено модератором 13 Окт 2017 08:42:50
Как cкачать  ·  Как раздать  ·  Правильно оформить  ·  Поднять ратио!  
Mykele
Стаж: 7 лет 7 мес.
Сообщений: 28
Ratio: 9,274
100%
ukraine.gif
Спасибо за релиз без рекламы!
Жаль в описании об этом не упоминается, пришлось качать 1-ю серию проверить.
Показать сообщения:   
Начать новую тему   Ответить на тему    Торрент-трекер NNM-Club -> Аниме с озвучкой -> Аниме с озвучкой (HD) Часовой пояс: GMT + 3
Страница 1 из 1