Интеллигентный торрент-трекер
canvas not supported
Нас вместе: 4 252 607

Hungry Heart: Wild Striker / Неистовый бомбардир [2002, TV, 52 эп.] DVDRip 480p 10bit Raw


 
 
RSS
Начать новую тему   Ответить на тему    Торрент-трекер NNM-Club -> Аниме с субтитрами -> Аниме (SD)
Автор Сообщение
хИНАРИх ®
Стаж: 11 мес. 5 дней
Сообщений: 46
Ratio: 3642,718
Раздал: 57,09 TB
Поблагодарили: 202
100%
roody.gif
Hungry Heart: Wild Striker / Неистовый бомбардир
Жанр: спорт, комедия, школа
Тип: TВ-сериал
Количество серий: 52 из 52
Продолжительность: 52 серии по 25 минут
Период выхода: с 11.09.2002 по 10.09.2003
Производство: Nippon Animation
Автор оригинала: Такахаси Ёити
Снято по манге: Hungry Heart
Режиссер: Сага Сатоси
Ссылки: World-Art, Ani-DB, Официальный сайт, ANN, MAL
Описание:

История начинается как и множество других спортивных аниме. Бывший футболист Каноу Кёске переходит в старшую школу. Обладая кое-каким талантом, он, все же, не хочет играть в футбол. Причины две - его характер и, в большей степени, старший брат. Дело в том, что его брат играет в ФК Милан, и он - будущее, главная надежда и гордость Японии, поэтому Кёске постоянно сравнивают с ним и, конечно, сравнение идет не в пользу младшего брата. И так постоянно.

Но, придя в старшую школу, одна девушка, узнав, кто он, заставляет его тренировать женскую сборную по футболу путем шантажа. Кёске в ходе тренировки сам начинает вспоминать навыки футбола и тренировки с братом, когда те были детьми. И со временем он начинает втягиваться в футбол, и вступает в сборную школы вместе с двумя другими, не менее талантливыми новичками-иностранцами, приехавшими в Японию играть в футбол.
Качество видео: DVDRip
Видео: AVC, 640x480, ~1.2 Mbps, 10bit
Аудио: АC-3, 2ch, 48KHz, 384 kb/s | Звук: Японский
Субтитры: Русские

General
Unique ID : 243341824296801570544381669550439274819 (0xB711EE3CAFBF8E59A3B4A3357D441943)
Complete name : [EruPii-Raws] Hungry Heart Wild Striker - 01 [DVD 640x480 x264-10bit AC3][94690573].mkv
Format : Matroska
Format version : Version 4 / Version 2
File size : 266 MiB
Duration : 23 min 26 s
Overall bit rate : 1 586 kb/s
Encoded date : UTC 2015-11-17 00:01:12
Writing application : mkvmerge v7.8.0 ('River Man') 32bit built on Mar 27 2015 16:18:02
Writing library : libebml v1.3.1 + libmatroska v1.4.2

Video
ID : 1
Format : AVC
Format/Info : Advanced Video Codec
Format profile : High 10@L3
Format settings, CABAC : Yes
Format settings, RefFrames : 5 frames
Codec ID : V_MPEG4/ISO/AVC
Duration : 23 min 25 s
Bit rate : 1 200 kb/s
Width : 640 pixels
Height : 480 pixels
Display aspect ratio : 4:3
Frame rate mode : Constant
Frame rate : 23.976 (24000/1001) FPS
Color space : YUV
Chroma subsampling : 4:2:0
Bit depth : 10 bits
Scan type : Progressive
Bits/(Pixel*Frame) : 0.163
Stream size : 201 MiB (76%)
Writing library : x264 core 146 r2538 121396c
Encoding settings : cabac=1 / ref=5 / deblock=1:1:2 / analyse=0x3:0x133 / me=umh / subme=8 / psy=1 / psy_rd=1.00:0.00 / mixed_ref=1 / me_range=16 / chroma_me=1 / trellis=1 / 8x8dct=1 / cqm=0 / deadzone=21,11 / fast_pskip=0 / chroma_qp_offset=-2 / threads=6 / lookahead_threads=1 / sliced_threads=0 / nr=0 / decimate=1 / interlaced=0 / bluray_compat=0 / stitchable=1 / constrained_intra=0 / bframes=3 / b_pyramid=2 / b_adapt=2 / b_bias=0 / direct=3 / weightb=1 / open_gop=0 / weightp=2 / keyint=240 / keyint_min=23 / scenecut=40 / intra_refresh=0 / rc_lookahead=50 / rc=2pass / mbtree=1 / bitrate=1200 / ratetol=1.0 / qcomp=0.60 / qpmin=0 / qpmax=81 / qpstep=4 / cplxblur=20.0 / qblur=0.5 / ip_ratio=1.40 / aq=1:1.00
Language : Japanese
Default : Yes
Forced : No

Audio
ID : 2
Format : AC-3
Format/Info : Audio Coding 3
Format settings, Endianness : Big
Codec ID : A_AC3
Duration : 23 min 26 s
Bit rate mode : Constant
Bit rate : 384 kb/s
Channel(s) : 2 channels
Channel positions : Front: L R
Sampling rate : 48.0 kHz
Frame rate : 31.250 FPS (1536 SPF)
Bit depth : 16 bits
Compression mode : Lossy
Stream size : 64.4 MiB (24%)
Language : Japanese
Service kind : Complete Main
Default : Yes
Forced : No

Menu
00:00:00.000 : en:Opening
00:01:15.075 : en:Part 1
00:12:00.553 : en:Part 2
00:21:45.721 : en:Ending
00:23:05.718 : en:Preview
01. Are You Kyousuke
02. Thank you... Coach!
03. I'm Not Gonna Lose!
04. Me? What? Defender?
05. Running Away?
06. Why do you have to be a Forward?
07. Don't underestimate Soccer!
08. Absolutely nobody will pass me!
09. If you're a man, what're you getting scared for!?
10. I can see it! I can clearly see it!
11. Kyosuke-kun is Akanegaoka's weakpoint?
12. Don't be taken by the posts!
13. Hot-headed Mister!
14. Everyone! Locker room Meeting!
15. What kind of shot was that?!
16. I can't take it anymore!!
17. I'll Force You to Come Out!
18. There's something wrong with Rodrigo!
19. If I say I'll make it, I'll make it!!
20. It's not like you to hesitate!
21. You're a Bad Loser!
22. What the hell are we doing?
23. An Open-Air Bath?
24. You Guys are too Impudent!
25. Me, Seizing the World of Soccer!
26. I have waited for this!
27. Let the penalty shoot-out begin!
28. Do what we always do?
29. Bring It On, Sergeant Chin!
30. I made it, Brother!
31. I Don't Feel Excited at All Today...
32. Kanou Kyosuke... I Wouldn't Forgive You!
33. It can't be... Kanou's the captain!?
34. You're 10 Years Too Early... Bird Nest Head!
35. Why did this have to happen to Kyosuke-kun too!
36. What are you doing, guys!
37. Isn't anyone else coming!?
38. Captain Esaka...!?
39. Eat and run woman! How long are you going to sleep?
40. I was finally able to come back...
41. T-Twelve Goals!?
42. Who's that? Sergeant Chin?
43. Can you give me a little time to think?
44. "Father, I`m okay now."
45. Come, Bring It!!
46. Itemae Soccer?
47. Where are you planning to take me?
48. How can we stay in this horrible place?
49. Murakami, can you stay a while longer?
50. I`ve been waiting for you, Kyosuke! At the High School
51. The spirit of Jyoyo
52. Take a walk, Kyosuke



Время раздачи: круглосуточно
[NNM-Club.name]_Hungry Heart Wild Strike.torrent
 Торрент: Платиновая раздача  Зарегистрирован
 
Скачать


Примагнититься
 Зарегистрирован:   25 Июл 2017 16:45:27
 Размер:   13,7 GB  (
 Рейтинг:    (Голосов: 7)
 Поблагодарили:   13
 Проверка:   Оформление проверено модератором 26 Июл 2017 01:05:04
Как cкачать  ·  Как раздать  ·  Правильно оформить  ·  Поднять ратио!  
Показать сообщения:   
Начать новую тему   Ответить на тему    Торрент-трекер NNM-Club -> Аниме с субтитрами -> Аниме (SD) Часовой пояс: GMT + 3
Страница 1 из 1