Интеллигентный торрент-трекер
canvas not supported
Нас вместе: 4 313 334

Hajimete no Gal / My First Girlfriend Is a Gal / Моя первая гяру [2017, TV, 6 из 10] WEB-DL 720p Raw


 
 
RSS
Начать новую тему   Ответить на тему    Торрент-трекер NNM-Club -> Аниме с субтитрами -> Онгоинги
Автор Сообщение
хИНАРИх ®
Стаж: 7 мес. 15 дней
Сообщений: 38
Ratio: 1509,696
Раздал: 24,92 TB
Поблагодарили: 129
100%
roody.gif
Hajimete no Gal / My First Girlfriend Is a Gal / Моя первая гяру
Жанр: комедия, этти, романтика, школа, сёнен
Тип: TВ-сериал
Количество серий: 6 из 10
Продолжительность: 10 серий по 25 минут
Период выхода: с 12.07.2017 по 13.09.2017
Производство: NAZ
Автор оригинала: Уэно Мэгуру
Снято по манге: Hajimete no Gal
Режиссер: Фурукава Хироюки
Ссылки: World-Art, Ani-DB, Официальный сайт, ANN, MAL, Сетка вещания
Описание:

В школе народ обычно делится на две категории. В первой - задроты и ботаники, а во второй народ попроще, без закидонов. Обычным ребятам, которые не испытывают никаких трудностей с общением, проще простого найти себе пару и как следует насладиться первой юношеской любовью. У задротов и ботаников с этим дело обстоит на порядок хуже, но ведь они такие же люди, а значит гормоны бьют ключом. Но им остаётся лишь мечтать и фантазировать об отношениях с противоположным полом, ведь обычная девушка в их сторону если и посмотрит, то только с презрением. Шестнадцатилетний Джуничи Хашиба как раз в таком возрасте. Ему бы уроки делать, да к экзаменам готовиться, а он только и думает о том, как бы ему девственности побыстрее лишиться. Добрые друзья решили подколоть его и буквально заставили признаться в любви их красивой однокласснице-гяру Юкане Ямэ. Но кто бы мог подумать, что она действительно согласится встречаться с ним! Фантазии Джуничи наконец начинают сбываться, но непонятно, сладкий ли это сон или же жуткий кошмар.
Качество видео: WEB-DL
Видео: AVC, 1280x720, ~1.7 Mbps
Аудио: ААС, 2ch, 48KHz, 192 kb/s | Звук: Японский
Субтитры: Русские
Перевод от: [AniPlay]

General
Complete name : [Ohys-Raws] Hajimete no Gal - 01 (AT-X 1280x720 x264 AAC).mp4
Format : MPEG-4
Format profile : Base Media
Codec ID : isom (isom/avc1)
File size : 298 MiB
Duration : 24 min 0 s
Overall bit rate mode : Variable
Overall bit rate : 1 733 kb/s
Encoded date : UTC 2017-07-12 14:34:57
Tagged date : UTC 2017-07-12 14:34:57

Video
ID : 1
Format : AVC
Format/Info : Advanced Video Codec
Format profile : Main@L4.1
Format settings, CABAC : Yes
Format settings, RefFrames : 4 frames
Codec ID : avc1
Codec ID/Info : Advanced Video Coding
Duration : 24 min 0 s
Bit rate : 1 537 kb/s
Maximum bit rate : 6 495 kb/s
Width : 1 280 pixels
Height : 720 pixels
Display aspect ratio : 16:9
Frame rate mode : Constant
Frame rate : 23.976 (24000/1001) FPS
Color space : YUV
Chroma subsampling : 4:2:0
Bit depth : 8 bits
Scan type : Progressive
Bits/(Pixel*Frame) : 0.070
Stream size : 264 MiB (89%)
Writing library : x264 core 152 r2851+58 429492e t_mod_Custom [8-bit@all X86_64]
Encoding settings : cabac=1 / ref=3 / deblock=1:0:0 / analyse=0x1:0x111 / me=hex / subme=7 / psy=1 / fade_compensate=0.00 / psy_rd=1.00:0.00 / mixed_ref=1 / me_range=16 / chroma_me=1 / trellis=1 / 8x8dct=0 / cqm=0 / deadzone=21,11 / fast_pskip=1 / chroma_qp_offset=-2 / threads=12 / lookahead_threads=2 / sliced_threads=0 / nr=0 / decimate=1 / interlaced=0 / bluray_compat=0 / constrained_intra=0 / fgo=0 / bframes=3 / b_pyramid=2 / b_adapt=1 / b_bias=0 / direct=1 / weightb=1 / open_gop=0 / weightp=2 / keyint=240 / keyint_min=1 / scenecut=40 / intra_refresh=0 / rc_lookahead=40 / rc=crf / mbtree=1 / crf=20.0000 / qcomp=0.60 / qpmin=0:0:0 / qpmax=69:69:69 / qpstep=4 / ip_ratio=1.40 / aq=1:1.50 / aq-sensitivity=10.00 / aq-factor=1.00:1.00:1.00 / aq2=0 / aq3=0
Encoded date : UTC 2017-07-12 14:34:57
Tagged date : UTC 2017-07-12 14:34:59
Color range : Limited
Color primaries : BT.709
Transfer characteristics : BT.709
Matrix coefficients : BT.709

Audio
ID : 2
Format : AAC
Format/Info : Advanced Audio Codec
Format profile : LC
Codec ID : 40
Duration : 24 min 0 s
Bit rate mode : Variable
Bit rate : 192 kb/s
Maximum bit rate : 248 kb/s
Channel(s) : 2 channels
Channel positions : Front: L R
Sampling rate : 48.0 kHz
Frame rate : 46.875 FPS (1024 SPF)
Compression mode : Lossy
Stream size : 33.0 MiB (11%)
Language : Japanese
Encoded date : UTC 2017-07-12 14:25:32
Tagged date : UTC 2017-07-12 14:34:59
01. My First Time Begging for It
02. My First Karaoke
03. My First Spray-On Gal
04. My First Serious Gal
05. My First Half-Assed Gal
06. My First Time at Yame-san`s House
07. My First Job



Время раздачи: круглосуточно
[NNM-Club.name]_My First Girlfriend Is a Gal.torrent
 Торрент:   Зарегистрирован
 
Зарегистрируйтесь и скачайте торрент!
20 KB
Free Leech
Примагнититься
 Зарегистрирован:   19 Авг 2017 23:09:44
 Размер:   1,88 GB  (
 Рейтинг:    (Голосов: 8)
 Поблагодарили:   42
 Проверка:   Оформление проверено модератором 20 Авг 2017 02:41:19
Как cкачать  ·  Как раздать  ·  Правильно оформить  ·  Поднять ратио!  
хИНАРИх ®
Стаж: 7 мес. 15 дней
Сообщений: 38
Ratio: 1509,696
Раздал: 24,92 TB
Поблагодарили: 129
100%
roody.gif
Извините за задержку, завтра обновлю релиз. =\
хИНАРИх ®
Стаж: 7 мес. 15 дней
Сообщений: 38
Ratio: 1509,696
Раздал: 24,92 TB
Поблагодарили: 129
100%
roody.gif
Релиз обновлен до 6-ой серии
Показать сообщения:   
Начать новую тему   Ответить на тему    Торрент-трекер NNM-Club -> Аниме с субтитрами -> Онгоинги Часовой пояс: GMT + 3
Страница 1 из 1