Интеллигентный торрент-трекер
canvas not supported
Нас вместе: 4 314 620

Kono Subarashii Sekai ni Shukufuku wo! 2 OVA / Konosuba OVA 2 / Этот замечательный мир! 2 OVA [2017, OVA] BDrip 720p Hi10P raw


 
 
RSS
Начать новую тему   Ответить на тему    Торрент-трекер NNM-Club -> Аниме с субтитрами -> Аниме (HD)
Автор Сообщение
kvaking ®
RG Аниме
 
Стаж: 7 лет
Сообщений: 1720
Ratio: 69,663
Раздал: 89,98 TB
Поблагодарили: 11612
100%
Откуда: Осака
roody.gif
この素晴らしい世界に祝福を! 2 この素晴らしい芸術に祝福を!
Kono Subarashii Sekai ni Shukufuku wo! 2 OVA
Konosuba OVA 2
Этот замечательный мир! 2 OVA

Жанр: комедия, приключения.
Количество серий: 1
Продолжительность: 1 серий по 25 мин
Качество видео: BDrip
Дата премьеры: 24.07.2017
Производство/студия:

Автор оригинала: Акацуки Нацумэ
Режиссер: Канасаки Такаоми

Битрейт видео: ~1 363 kb/s
Размер кадра: 1280х720
Аудио: AAC 192 Kbps
Язык озвучки: Японский
Язык субтитров: Русский [AniPlay], Английский [Mori].

Описание:
OVA второго сезона.

Описание к первому сезону:

Пропадать – так с музыкой, выбирать – так богиню! Когда игроман-затворник Кадзума Сато окончил (преждевременно) свои дни на грешной земле, то очнулся в межреальности, где ехидная богиня Аква сделала ему предложение, от которого трудно отказаться. Да, вместо перерождения в жука или муху Кадзума получил шанс отправиться в игровой мир и «поработать по специальности», победив местного Князя Тьмы. Юному герою разрешили взять с собой что-то одно: и парень выбрал Акву – а нечего было выпендриваться! Начальство выбор утвердило – за слова надо отвечать, и парочка попаданцев отправилась на подвиги.

На месте выяснилось, что попали ребята в тихие края, где о Темном Властелине только слышали. Ну и отлично – квест не терпит суеты, сначала надо осмотреться, потом спокойно обретать знания, копить навыки и качать опыт. Биться все равно придется – а значит, пора собирать группу, благо теория хорошо известна. Сам Кадзума, конечно, не мрачный воин, а скорее веселый вор, Аква как водная богиня потянет на целительницу, а главной огневой силой стала малышка Мэгумин, она же «Искусство – это взрыв!» Последней к компании прибилась Даркнес – уникальный рыцарь-мазохист. Да, с такими кадрами на Сатану идти не страшно – хуже уже не будет!

© Hollow, World Art

Ссылки:

Скриншоты:
#1 Konosuba - ТВ (10 эп.), адаптация ранобэ, 2016: BD1080
#2 Konosuba OVA - OVA (1 эп.), адаптация ранобэ, 2016: BD720
#3 Konosuba 2 - ТВ, продолжение, 2017: WEBrip 720p
#4 Konosuba 2 OVA - OVA (1 эп.), адаптация ранобэ, 2017: Эта раздача.
Код: выделить все
General
Unique ID                      : 175727710561380951443992328582117855340 (0x8433ED0D36C03F0486CE7BBE1006106C)
Complete name                  : E:\Kono Subarashii Sekai ni Shukufuku wo! 2 (OVA)\[Mori] Kono Subarashii Sekai ni Shukufuku wo! 2 - 11 OVA [720p][8F6D8F5F].mkv
Format                         : Matroska
Format version                 : Version 4 / Version 2
File size                      : 281 MiB
Duration                       : 28 min 52 s
Overall bit rate               : 1 363 kb/s
Encoded date                   : UTC 2017-07-26 16:15:49
Writing application            : mkvmerge v7.7.0 ('Six Voices') 64bit built on Feb 28 2015 23:39:33
Writing library                : libebml v1.3.1 + libmatroska v1.4.2
Attachments                    : Rosario-Bold.ttf / Rosario-BoldItalic.ttf / Rosario-Italic.ttf / Rosario-Regular.ttf / Cabin-Bold.otf / DAIGO-W5-EN.ttf / DISTInkingFxd-Bold.otf / FOT-AnitoStd-M-AW.ttf / PIXEARG.TTF / A-OTF-FOLKPRO-BOLD-ENV2.TTF / AvenirLTStd-Heavy.otf / AvenirLTStd-HeavyOblique.otf

Video
ID                             : 5
Format                         : AVC
Format/Info                    : Advanced Video Codec
Format profile                 : High 10@L5
Format settings, CABAC         : Yes
Format settings, ReFrames      : 16 frames
Codec ID                       : V_MPEG4/ISO/AVC
Duration                       : 28 min 50 s
Bit rate                       : 1 137 kb/s
Width                          : 1 280 pixels
Height                         : 720 pixels
Display aspect ratio           : 16:9
Frame rate mode                : Constant
Frame rate                     : 23.976 (23976/1000) FPS
Color space                    : YUV
Chroma subsampling             : 4:2:0
Bit depth                      : 10 bits
Scan type                      : Progressive
Bits/(Pixel*Frame)             : 0.051
Stream size                    : 235 MiB (83%)
Writing library                : x264 core 142 r2479kMod dd79a61
Encoding settings              : cabac=1 / ref=16 / deblock=1:1:1 / analyse=0x3:0x133 / me=umh / subme=10 / psy=1 / fade_compensate=0.00 / psy_rd=0.40:0.00 / mixed_ref=1 / me_range=24 / chroma_me=1 / trellis=2 / 8x8dct=1 / cqm=0 / deadzone=21,11 / fast_pskip=1 / chroma_qp_offset=-2 / threads=6 / lookahead_threads=1 / sliced_threads=0 / nr=0 / decimate=1 / interlaced=0 / bluray_compat=0 / constrained_intra=0 / fgo=0 / bframes=10 / b_pyramid=2 / b_adapt=2 / b_bias=0 / direct=3 / weightb=1 / open_gop=0 / weightp=2 / keyint=250 / keyint_min=23 / scenecut=40 / intra_refresh=0 / rc_lookahead=60 / rc=crf / mbtree=1 / crf=17.0000 / qcomp=0.60 / qpmin=0 / qpmax=81 / qpstep=4 / ip_ratio=1.40 / aq=1:0.60
Language                       : English
Default                        : Yes
Forced                         : No

Audio
ID                             : 6
Format                         : AAC
Format/Info                    : Advanced Audio Codec
Format profile                 : LC
Codec ID                       : A_AAC
Duration                       : 28 min 49 s
Bit rate                       : 192 kb/s
Channel(s)                     : 2 channels
Channel positions              : Front: L R
Sampling rate                  : 48.0 kHz
Frame rate                     : 46.875 FPS (1024 spf)
Compression mode               : Lossy
Stream size                    : 39.6 MiB (14%)
Default                        : Yes
Forced                         : No

Text #1
ID                             : 1
Format                         : ASS
Codec ID                       : S_TEXT/ASS
Codec ID/Info                  : Advanced Sub Station Alpha
Duration                       : 28 min 42 s
Bit rate                       : 5 490 b/s
Count of elements              : 6349
Compression mode               : Lossless
Stream size                    : 1.13 MiB (0%)
Title                          : English
Language                       : English
Default                        : Yes
Forced                         : No

Text #2
ID                             : 2
Format                         : ASS
Codec ID                       : S_TEXT/ASS
Codec ID/Info                  : Advanced Sub Station Alpha
Duration                       : 28 min 42 s
Bit rate                       : 5 490 b/s
Count of elements              : 6349
Compression mode               : Lossless
Stream size                    : 1.13 MiB (0%)
Title                          : Every instance of "Kazuma" is replaced with "the guy"
Default                        : No
Forced                         : No

Text #3
ID                             : 3
Format                         : ASS
Codec ID                       : S_TEXT/ASS
Codec ID/Info                  : Advanced Sub Station Alpha
Duration                       : 28 min 42 s
Bit rate                       : 5 490 b/s
Count of elements              : 6349
Compression mode               : Lossless
Stream size                    : 1.13 MiB (0%)
Title                          : Every instance of "Darkness" is replaced with "Boobs"
Default                        : No
Forced                         : No

Text #4
ID                             : 4
Format                         : ASS
Codec ID                       : S_TEXT/ASS
Codec ID/Info                  : Advanced Sub Station Alpha
Duration                       : 28 min 42 s
Bit rate                       : 5 490 b/s
Count of elements              : 6349
Compression mode               : Lossless
Stream size                    : 1.13 MiB (0%)
Title                          : Both of them at the same time this is stupid don't actually watch the OVA like this
Default                        : No
Forced                         : No

Menu
00:00:00.000                   : :Opening
00:01:30.480                   : :Episode 11: God's Blessing on this Wonderful Work of Art!
00:27:19.450                   : :Ending
Время раздачи: 24/7
[NNM-Club.name]_Kono Subarashii Sekai ni Shukufuku wo! 2 (OVA).torrent
 Торрент:   Зарегистрирован
 
Зарегистрируйтесь и скачайте торрент!
11,5 KB

Примагнититься
 Зарегистрирован:   31 Июл 2017 16:55:21
 Размер:   282 MB  (
 Рейтинг:    (Голосов: 9)
 Поблагодарили:   26
 Проверка:   Оформление проверено модератором 31 Июл 2017 16:58:06
Как cкачать  ·  Как раздать  ·  Правильно оформить  ·  Поднять ратио!  
kvaking ®
RG Аниме
 
Стаж: 7 лет
Сообщений: 1720
Ratio: 69,663
Раздал: 89,98 TB
Поблагодарили: 11612
100%
Откуда: Осака
roody.gif
Правом данным мне, я запилил вам ову эту. ДА СЛАВЬТЕ... гкхм! Грубо говоря мне уступили релик. =)

Всем приятного просмотра! :D

_________________

[Double-Raws] - Равки, для вас!
Тестер нового формата.
iLdragon
Стаж: 2 года 7 мес.
Сообщений: 223
Ratio: 7,263
Поблагодарили: 32
100%
kvaking
Спасибо, посмотрим что там Казума начудил
diolar
Стаж: 3 года 6 мес.
Сообщений: 2
Ratio: 17,218
84.12%
kazakhstan.gif
Молниеносно! Спасибо :)
Melko​r_Dar​k​
Стаж: 6 лет 5 мес.
Сообщений: 127
Ratio: 8,534
21.04%
russia.gif
Труселя на палево продолжаются))

Коуб в тему :)
https://coub.com/view/sbwlp
Показать сообщения:   
Начать новую тему   Ответить на тему    Торрент-трекер NNM-Club -> Аниме с субтитрами -> Аниме (HD) Часовой пояс: GMT + 3
Страница 1 из 1