Интеллигентный торрент-трекер
canvas not supported
Нас вместе: 4 314 162

Kimi no Na wa. / Your Name / Твоё имя [2016, MV] BDrip 1080p raw


 
 
RSS
Начать новую тему   Ответить на тему    Торрент-трекер NNM-Club -> Аниме с субтитрами -> Аниме (FullHD)
Автор Сообщение
kvaking ®
RG Аниме
 
Стаж: 7 лет
Сообщений: 1720
Ratio: 69,733
Раздал: 90,1 TB
Поблагодарили: 11615
100%
Откуда: Осака
roody.gif
君の名は。
Kimi no Na wa.
Your Name
Твоё имя

Жанр: романтика, драма, мистика
Продолжительность: 1:46:36
Качество видео: BDrip
Дата премьеры: 03.07.2016
Производство/студия:

Автор оригинала: Синкай Макото
Режиссер: Синкай Макото

Битрейт видео: ~20.0 Mb/s
Размер кадра: 1920x1080
Аудио: FLAC 577 kb/s, 2.0. + 5.1 DTS 3 595 kb/s / 1 509 kb/s. (в Extra)
Язык озвучки: Японский
Язык субтитров: Русский [AleX_MytH&Seiya Loveless].

Описание:
В размеренном спокойствии проходит её жизнь в провинциальной глубинке. Она - примерная дочь, заботливая сестра, усердная служительница в местном храме. В суматошной круговерти проходит один за другим его дни в многомиллионной столице. Он - талантливый художник, трудолюбивый работник и надёжный друг.

Их разделяют тысячи причин и сотни километров. Но судьба по своему разумению связала жизни Мицухи Миямидзу и Таки Татибаны друг с другом. Иногда во сне они непонятным для них образом меняются телами. Так странно для них переживать эти метаморфозы. Почему это происходит, а главное, как это всё прекратить - школьникам было неизвестно. Но с каждым днём сны становились всё чаще и реалистичнее. А значит, им всё чаще приходилось просыпаться в другой жизни и с чужим именем… Именем, которого раньше даже никогда не знал.

© Dreamfighter, World Art

Ссылки:

Скриншоты:
Код: выделить все
General
Unique ID                      : 123741912224583720231106759696149039142 (0x5D17D34E429E2528666F4B999986C826)
Complete name                  : E:\Kimi no Na wa 1080p\[ReinForce] Kimi no Na wa. (BDRip 1920x1080 x264 FLAC).mkv
Format                         : Matroska
Format version                 : Version 4 / Version 2
File size                      : 14.9 GiB
Duration                       : 1 h 46 min
Overall bit rate mode          : Variable
Overall bit rate               : 20.0 Mb/s
Encoded date                   : UTC 2017-07-26 05:35:28
Writing application            : mkvmerge v13.0.0 ('The Juggler') 64bit
Writing library                : libebml v1.3.4 + libmatroska v1.4.7

Video
ID                             : 1
Format                         : AVC
Format/Info                    : Advanced Video Codec
Format profile                 : High@L4
Format settings, CABAC         : Yes
Format settings, RefFrames     : 4 frames
Codec ID                       : V_MPEG4/ISO/AVC
Duration                       : 1 h 46 min
Bit rate                       : 19.4 Mb/s
Width                          : 1 920 pixels
Height                         : 1 080 pixels
Display aspect ratio           : 16:9
Frame rate mode                : Constant
Frame rate                     : 23.976 (24000/1001) FPS
Color space                    : YUV
Chroma subsampling             : 4:2:0
Bit depth                      : 8 bits
Scan type                      : Progressive
Bits/(Pixel*Frame)             : 0.390
Stream size                    : 14.4 GiB (97%)
Writing library                : x264 core 152
Encoding settings              : opencl=1 / cabac=1 / ref=4 / deblock=1:-2:-2 / analyse=0x3:0x113 / me=tesa / subme=10 / psy=1 / psy_rd=0.80:0.00 / mixed_ref=0 / me_range=32 / chroma_me=1 / trellis=2 / 8x8dct=1 / cqm=0 / deadzone=21,11 / fast_pskip=1 / chroma_qp_offset=-2 / threads=8 / lookahead_threads=1 / sliced_threads=0 / nr=0 / decimate=1 / interlaced=0 / bluray_compat=0 / constrained_intra=0 / bframes=9 / b_pyramid=2 / b_adapt=2 / b_bias=0 / direct=3 / weightb=1 / open_gop=0 / weightp=2 / keyint=250 / keyint_min=23 / scenecut=40 / intra_refresh=0 / rc_lookahead=40 / rc=crf / mbtree=1 / crf=15.0 / qcomp=0.80 / qpmin=10 / qpmax=10 / qpstep=4 / ip_ratio=1.40 / aq=1:1.00
Default                        : Yes
Forced                         : No

Audio
ID                             : 2
Format                         : FLAC
Format/Info                    : Free Lossless Audio Codec
Codec ID                       : A_FLAC
Duration                       : 1 h 46 min
Bit rate mode                  : Variable
Bit rate                       : 577 kb/s
Channel(s)                     : 2 channels
Channel positions              : Front: L R
Sampling rate                  : 48.0 kHz
Frame rate                     : 10.417 FPS (4608 SPF)
Bit depth                      : 16 bits
Stream size                    : 440 MiB (3%)
Writing library                : Lavf57.71.100
Language                       : Japanese
Default                        : Yes
Forced                         : No
Время раздачи: 24/7
[NNM-Club.name]_Kimi no Na wa 1080p.torrent
 Торрент: Платиновая раздача  Зарегистрирован
 
Скачать


Примагнититься
 Зарегистрирован:   31 Июл 2017 20:07:36
 Размер:   20 GB  (
 Рейтинг:   4,8 (Голосов: 20)
 Поблагодарили:   50
 Проверка:   Оформление проверено модератором 31 Июл 2017 20:29:46
Как cкачать  ·  Как раздать  ·  Правильно оформить  ·  Поднять ратио!  

_________________

[Double-Raws] - Равки, для вас!
Тестер нового формата.
Rash21
Стаж: 6 лет 5 мес.
Сообщений: 120
Ratio: 7,47
Раздал: 1,865 TB
8.23%
Откуда: Одесса
ukraine.gif
Если есть сомнения то отбросьте и посмотрите !
Сюжет продуман и проработан куда лучше чем почти современные фильмы! Диалоги. поступки, действия хоть и непредсказуемы но логичны и адекватны!
Аниме без особого экшена, это мелодрама но очень качественная .
Lucky​Dream​er​
Стаж: 5 лет 7 мес.
Сообщений: 3
Ratio: 0,576
51.97%
ussr.gif
Очень добрый, изумительно красивый.
Прекрасный труд режиссёра.
И отдельная благодарность за русские субтитры
ElSwanko
Куратор Аниме
Модератор Музыки
Стаж: 10 лет 10 мес.
Сообщений: 10680
Ratio: 552,472
Поблагодарили: 39749
100%
Откуда: ур-пр​остра​нство​ преко​нтину​ума​
roody.gif
А в сентябре-октябре его завезут в кинотеатры (мск, питер вроде точно заявлены), т.ч. если хотите поблагодарить авторов - сходите в кино.

_________________
Правила: Аниме, Манга, OST || Музыка
Помощь: Скриншоты || MediaInfo || auCDtect
Показать сообщения:   
Начать новую тему   Ответить на тему    Торрент-трекер NNM-Club -> Аниме с субтитрами -> Аниме (FullHD) Часовой пояс: GMT + 3
Страница 1 из 1