Интеллигентный торрент-трекер
canvas not supported
Нас вместе: 4 314 738

Rage - Seasons Of The Black (2017) 2CD, Limited Edition [FLAC|Lossless|image + .cue] <Power Metal, Speed Metal>


 
 
RSS
Начать новую тему   Ответить на тему    Торрент-трекер NNM-Club -> Rock, Alternative, Punk, Metal -> Metal (Lossless)
Автор Сообщение
zavyal87 ®
 
Стаж: 3 года 4 мес.
Сообщений: 128
Ratio: 232,922
Поблагодарили: 2250
100%
russia.gif
Rage - Seasons Of The Black (2017) 2CD, Limited Edition
Жанр: Power Metal, Speed Metal
Издание: Nuclear Blast Records - NB 3984-0
Продолжительность: 01:16:18
Источник (релизер): ilко

Кодек: FLAC
Битрейт: Lossless
Тип рипа: image + .cue
Наличие сканов: да, полные

Треклист:
01. Season Of The Black (4:56)
02. Serpents In Disguise (4:13)
03. Blackened Karma (4:40)
04. Time Will Tell (5:05)
05. Septic Bite (4:21)
06. Walk Among The Dead (4:07)
07. All We Know Is Not (4:20)
08. Gaia (1:03)
09. Justify (6:09)
10. Bloodshed In Paradise (5:40)
11. Farewell (7:21)

Продолжительноcть: 00:51:55

Peter "Peavy" Wagner - lead vocals, bass
Marcos Rodriguez - guitars, vocals
Vassilios "Lucky" Maniatopoulos - drums, vocals
Код: выделить все
Exact Audio Copy V1.3 from 2. September 2016

EAC extraction logfile from 31. July 2017, 17:02

Rage / Seasons Of The Black (CD1)

Used drive  : ATAPI   iHAS122   W   Adapter: 2  ID: 0

Read mode               : Secure
Utilize accurate stream : Yes
Defeat audio cache      : Yes
Make use of C2 pointers : No

Read offset correction                      : 48
Overread into Lead-In and Lead-Out          : No
Fill up missing offset samples with silence : Yes
Delete leading and trailing silent blocks   : No
Null samples used in CRC calculations       : Yes
Used interface                              : Installed external ASPI interface

Used output format              : User Defined Encoder
Selected bitrate                : 1024 kBit/s
Quality                         : High
Add ID3 tag                     : No
Command line compressor         : C:\Program Files\FLAC\flac.exe
Additional command line options : -V -8 -T "Date=%year%" -T "Genre=%genre%" -T"COMMENT=Ripped by  Ilijan - ilko" -8 -V %source%

TOC of the extracted CD

     Track |   Start  |  Length  | Start sector | End sector
    ---------------------------------------------------------
        1  |  0:00.00 |  4:55.59 |         0    |    22183
        2  |  4:55.59 |  4:13.28 |     22184    |    41186
        3  |  9:09.12 |  4:39.47 |     41187    |    62158
        4  | 13:48.59 |  5:05.32 |     62159    |    85065
        5  | 18:54.16 |  4:20.45 |     85066    |   104610
        6  | 23:14.61 |  4:07.25 |    104611    |   123160
        7  | 27:22.11 |  4:20.06 |    123161    |   142666
        8  | 31:42.17 |  1:02.44 |    142667    |   147360
        9  | 32:44.61 |  6:09.03 |    147361    |   175038
       10  | 38:53.64 |  5:39.41 |    175039    |   200504
       11  | 44:33.30 |  7:21.13 |    200505    |   233592

Range status and errors

Selected range

     Filename D:\ilko\Rage - Seasons Of The Black (CD1).wav

     Peak level 96.9 %
     Extraction speed 3.1 X
     Range quality 100.0 %
     Test CRC 71FF1BBF
     Copy CRC 71FF1BBF
     Copy OK

No errors occurred

AccurateRip summary

Track  1  not present in database
Track  2  not present in database
Track  3  not present in database
Track  4  not present in database
Track  5  not present in database
Track  6  not present in database
Track  7  not present in database
Track  8  not present in database
Track  9  not present in database
Track 10  not present in database
Track 11  not present in database

None of the tracks are present in the AccurateRip database

End of status report

---- CUETools DB Plugin V2.1.6

[CTDB TOCID: En_KVK6SrjRODbkcjnbFJyDH8rE-] found
Submit result: En_KVK6SrjRODbkcjnbFJyDH8rE- has been confirmed
Track | CTDB Status
  1   | (7/7) Accurately ripped
  2   | (7/7) Accurately ripped
  3   | (7/7) Accurately ripped
  4   | (7/7) Accurately ripped
  5   | (7/7) Accurately ripped
  6   | (7/7) Accurately ripped
  7   | (7/7) Accurately ripped
  8   | (7/7) Accurately ripped
  9   | (7/7) Accurately ripped
 10   | (7/7) Accurately ripped
 11   | (7/7) Accurately ripped

==== Log checksum 80AF0283823DF9124195CCEAFD7C25080B05EA6F72557A2A5767DA81D5318BEC ====
Код: выделить все
REM GENRE "Power Metal"
REM DATE 2017
REM DISCID 9C0C2A0B
REM COMMENT "ExactAudioCopy v1.3"
PERFORMER "Rage"
TITLE "Seasons Of The Black (CD1)"
FILE "Rage - Seasons Of The Black (CD1).flac" WAVE
  TRACK 01 AUDIO
    TITLE "Season Of The Black"
    PERFORMER "Rage"
    INDEX 01 00:00:00
  TRACK 02 AUDIO
    TITLE "Serpents In Disguise"
    PERFORMER "Rage"
    INDEX 00 04:55:56
    INDEX 01 04:55:59
  TRACK 03 AUDIO
    TITLE "Blackened Karma"
    PERFORMER "Rage"
    INDEX 00 09:08:60
    INDEX 01 09:09:12
  TRACK 04 AUDIO
    TITLE "Time Will Tell"
    PERFORMER "Rage"
    INDEX 00 13:47:63
    INDEX 01 13:48:59
  TRACK 05 AUDIO
    TITLE "Septic Bite"
    PERFORMER "Rage"
    INDEX 00 18:52:74
    INDEX 01 18:54:16
  TRACK 06 AUDIO
    TITLE "Walk Among The Dead"
    PERFORMER "Rage"
    INDEX 00 23:14:60
    INDEX 01 23:14:61
  TRACK 07 AUDIO
    TITLE "All We Know Is Not"
    PERFORMER "Rage"
    INDEX 00 27:20:31
    INDEX 01 27:22:11
  TRACK 08 AUDIO
    TITLE "Gaia"
    PERFORMER "Rage"
    INDEX 00 31:42:13
    INDEX 01 31:42:17
  TRACK 09 AUDIO
    TITLE "Justify"
    PERFORMER "Rage"
    INDEX 01 32:44:61
  TRACK 10 AUDIO
    TITLE "Bloodshed In Paradise"
    PERFORMER "Rage"
    INDEX 01 38:53:64
  TRACK 11 AUDIO
    TITLE "Farewell"
    PERFORMER "Rage"
    INDEX 01 44:33:30
Код: выделить все
-----------------------

DON'T MODIFY THIS FILE

-----------------------

PERFORMER: auCDtect Task Manager, ver. 1.6.0 RC1 build 1.6.0.1
Copyright (c) 2008-2010 y-soft. All rights reserved
http://y-soft.org

ANALYZER: auCDtect: CD records authenticity detector, version 0.8.2
Copyright (c) 2004 Oleg Berngardt. All rights reserved.
Copyright (c) 2004 Alexander Djourik. All rights reserved.

FILE: Rage - Seasons Of The Black (CD1).flac
  Size: 402603885 Hash: 589F7A2B5F49026AC973E8EA59F61071 Accuracy: -m0
  Conclusion: CDDA 100%
  Signature: B6FE5F745289507DD1BFA37F8377ED8244DF042C

Треклиcт:
01. Adoration (3:32)
02. Southcross Union (3:43)
03. Assorted By Satan (4:22)
04. Faster Than Hell (3:17)
05. Sword Made Of Steel (5:17)
06. Down To The Bone (4:12)

Продолжительноcть: 00:23:24
Код: выделить все
Exact Audio Copy V1.3 from 2. September 2016

EAC extraction logfile from 31. July 2017, 17:20

Rage / Seasons Of The Black (Bonus CD - Avenger Revisited)

Used drive  : ATAPI   iHAS122   W   Adapter: 2  ID: 0

Read mode               : Secure
Utilize accurate stream : Yes
Defeat audio cache      : Yes
Make use of C2 pointers : No

Read offset correction                      : 48
Overread into Lead-In and Lead-Out          : No
Fill up missing offset samples with silence : Yes
Delete leading and trailing silent blocks   : No
Null samples used in CRC calculations       : Yes
Used interface                              : Installed external ASPI interface

Used output format              : User Defined Encoder
Selected bitrate                : 1024 kBit/s
Quality                         : High
Add ID3 tag                     : No
Command line compressor         : C:\Program Files\FLAC\flac.exe
Additional command line options : -V -8 -T "Date=%year%" -T "Genre=%genre%" -T"COMMENT=Ripped by  Ilijan - ilko" -8 -V %source%

TOC of the extracted CD

     Track |   Start  |  Length  | Start sector | End sector
    ---------------------------------------------------------
        1  |  0:00.17 |  3:32.20 |        17    |    15936
        2  |  3:32.37 |  3:43.04 |     15937    |    32665
        3  |  7:15.41 |  4:22.20 |     32666    |    52335
        4  | 11:37.61 |  3:16.63 |     52336    |    67098
        5  | 14:54.49 |  5:16.40 |     67099    |    90838
        6  | 20:11.14 |  4:12.21 |     90839    |   109759

Range status and errors

Selected range

     Filename D:\ilko\Rage - Seasons Of The Black (Bonus CD - Avenger Revisited).wav

     Peak level 96.9 %
     Extraction speed 3.0 X
     Range quality 99.9 %
     Test CRC E50F36FC
     Copy CRC E50F36FC
     Copy OK

No errors occurred

AccurateRip summary

Track  1  not present in database
Track  2  not present in database
Track  3  not present in database
Track  4  not present in database
Track  5  not present in database
Track  6  not present in database

None of the tracks are present in the AccurateRip database

End of status report

---- CUETools DB Plugin V2.1.6

[CTDB TOCID: 8kQQDWc3UjVowFRBCO3IGoVOx6M-] found
Submit result: 8kQQDWc3UjVowFRBCO3IGoVOx6M- has been confirmed
Track | CTDB Status
  1   | (7/7) Accurately ripped
  2   | (7/7) Accurately ripped
  3   | (7/7) Accurately ripped
  4   | (7/7) Accurately ripped
  5   | (7/7) Accurately ripped
  6   | (7/7) Accurately ripped

==== Log checksum 60C9B80ECEB3ACC59D998757EE7B8C0FD202EABA8BBD869D1E22A054BE207B6D ====
Код: выделить все
REM GENRE "Power Metal"
REM DATE 2017
REM DISCID 4D05B706
REM COMMENT "ExactAudioCopy v1.3"
PERFORMER "Rage"
TITLE "Seasons Of The Black (Bonus CD - Avenger Revisited)"
FILE "Rage - Seasons Of The Black (Bonus CD - Avenger Revisited).flac" WAVE
  TRACK 01 AUDIO
    TITLE "Adoration"
    PERFORMER "Rage"
    INDEX 00 00:00:00
    INDEX 01 00:00:17
  TRACK 02 AUDIO
    TITLE "Southcross Union"
    PERFORMER "Rage"
    INDEX 00 03:32:21
    INDEX 01 03:32:37
  TRACK 03 AUDIO
    TITLE "Assorted By Satan"
    PERFORMER "Rage"
    INDEX 01 07:15:41
  TRACK 04 AUDIO
    TITLE "Faster Than Hell"
    PERFORMER "Rage"
    INDEX 00 11:37:60
    INDEX 01 11:37:61
  TRACK 05 AUDIO
    TITLE "Sword Made Of Steel"
    PERFORMER "Rage"
    INDEX 00 14:54:47
    INDEX 01 14:54:49
  TRACK 06 AUDIO
    TITLE "Down To The Bone"
    PERFORMER "Rage"
    INDEX 00 20:11:12
    INDEX 01 20:11:14
Код: выделить все
-----------------------

DON'T MODIFY THIS FILE

-----------------------

PERFORMER: auCDtect Task Manager, ver. 1.6.0 RC1 build 1.6.0.1
Copyright (c) 2008-2010 y-soft. All rights reserved
http://y-soft.org

ANALYZER: auCDtect: CD records authenticity detector, version 0.8.2
Copyright (c) 2004 Oleg Berngardt. All rights reserved.
Copyright (c) 2004 Alexander Djourik. All rights reserved.

FILE: Rage - Seasons Of The Black (Bonus CD - Avenger Revisited).flac
  Size: 190412288 Hash: D71A20F68E50728E00C5D54601F36176 Accuracy: -m0
  Conclusion: CDDA 99%
  Signature: 98FC69D0B1AC4CE2D41C672D40A692A558517D25
YouTubeYouTube
Время раздачи: 24/7 (до появления первых 3-5 скачавших)


Поглощение/вытеснение
Только с согласия релизера

chaosman1986
[NNM-Club.name]_Rage - Seasons Of The Black [Limited Edition 2CD] (2017).torrent
 Торрент:   Зарегистрирован
 
Зарегистрируйтесь и скачайте торрент!
14,9 KB

Примагнититься
 Зарегистрирован:   11 Авг 2017 20:58:24
 Размер:   655 MB  (
 Рейтинг:    (Голосов: 6)
 Поблагодарили:   39
 Проверка:   Оформление проверено модератором 11 Авг 2017 22:15:17
Как cкачать  ·  Как раздать  ·  Правильно оформить  ·  Поднять ратио!  
Показать сообщения:   
Начать новую тему   Ответить на тему    Торрент-трекер NNM-Club -> Rock, Alternative, Punk, Metal -> Metal (Lossless) Часовой пояс: GMT + 3
Страница 1 из 1