Интеллигентный торрент-трекер
canvas not supported
Нас вместе: 4 302 944

Paradise Lost - Medusa (2017) Limited Edition [FLAC|Lossless|image + .cue] <Doom Metal, Gothic Metal>


 
 
RSS
Начать новую тему   Ответить на тему    Торрент-трекер NNM-Club -> Rock, Alternative, Punk, Metal -> Metal (Lossless)
Автор Сообщение
zavyal87 ®
 
Стаж: 3 года 5 мес.
Сообщений: 135
Ratio: 237,004
Поблагодарили: 2520
100%
russia.gif
Paradise Lost - Medusa (2017) Limited Edition
Жанр: Doom Metal, Gothic Metal
Издание: Nuclear Blast ‎– NB 3797-0
Продолжительность: 00:51:25
Источник (релизер): ilко

Кодек: FLAC
Битрейт: Lossless
Тип рипа: image + .cue
Наличие сканов: Да, полные

Треклист:
01. Fearless Sky (8:31)
02. Gods of Ancient (5:50)
03. From the Gallows (3:42)
04. The Longest Winter (4:32)
05. Medusa (6:22)
06. No Passage for the Dead (4:16)
07. Blood & Chaos (3:52)
08. Until the Grave (5:41)
09. Shrines (Bonus Track) (4:00)
10. Symbolic Virtue (Bonus Track) (4:38)
Британская группа «Paradise Lost» знакома многим поклонникам метала и не нуждается в особом представлении. Коллектив, основанный в Йоркшире в 1988 году, считается одним из популяризаторов жанра Doom и коллективом, в творчестве которого выкристаллизовался Gothic Metal. Группа оставила обширную и разностороннюю дискографию. Осень 2017 года музыканты планировали начать выходом своего пятнадцатого студийного альбома «Medusa», состоящего из 11 треков.
Новый альбом коллектива под названием «Medusa» порадует сторонником аутентичности, на этом диске очень много «старорежимного». Сами музыканты называют этот диск самым тяжелым за последние пятнадцать лет. Альбом получился достаточно мрачным, метафоричным и философским. Музыка тяжеловесная и тягучая в лучших традициях дума. Тенденция добавлять в «думовый саунд» чистый вокал, характерная для некоторых пластинок коллектива, здесь почти нивелирована. Ник Хомлс продолжает радовать нас мастерством вокала, он поет в около-экстремальной манере, то с сильным хрипловатым перегрузом, а то и вовсе гроулом. Стоит заметить, что гроул звучит достаточно мягко и как бы обволакивается музыкальным сопровождением, что добавляет альбому стройности, гармонии и глубины. Иногда вокал звучит немного «отстраненно». Перед нами достаточно причесанный, но при этом качественный и атмосферный дум-метал. Налет готики здесь незрим, почти мимолетен — он проявляется местами на уровне «общего духа».
В некоторых песнях мелодика и вокальная манера напоминают «сильно утяжеленный» и хрипловатый «Depeche Mode». Яркий пример тому — претендующая на роль главного хита композиция «Longest Winter», лирик-видео на которую стало аперитивом к альбому. Но при этом песня достаточно монотонна, что опять же напоминает о своеобразной хитовости «дэпеша». «Непопулярная хитовость» проявлется во многих песнях альбома «Medusa»
Сравнение метал-группы с мэтрами электроники могло бы показаться смелым и неоднозначным, но это не в случае с «Paradise Lost». Движение в сторону «мрачной эстетики», характерной для самой роковой электронной команды, было давно замечено в творчестве металлистов. По атмосфере и настроению музыка этих двух коллективов действительно похожа. Да и тягучий дум — хорошая почва для воплощения «дэпешевской эстетики».
Большинство песен альбома медленные, музыка коллектива захватывает, но не цепляет, причиной тому своеобразная мелодичность. Песни почти не запоминаются, после прослушивания остается лишь общее настроение музыки, её идея, построенная на чередовании «разных степеней экстремальности». Некоторые песни резки и почти истеричны, например «Gods of Ancient» и «Until The Grave». Другие, напротив, выверенные, более мягкие и аморфные. К таким композициям относится заглавный трек «Medusa». Эта песня не случайно дала название альбому, её можно назвать самой сильной и самой забойной, если в этом случае вообще можно говорить о «забойности». Композиция «Medusa» – квинтэссенция всего альбома. Это очень логично и соотносится с главной концепцией диска и центральной ролью образа «медузы», превращенного музыкантами в философский концепт. Авторы диска признаются, что «медуза» — образ, имеющий множество смыслов и воплощений. Аллюзии и философические построения, заложенные в концепции альбома, достаточно глубоки и сложны. Глубина содержания отлично передается в музыке. При всей специфичности и сложности эта музыка достаточно легко воспринимается, она интересна и современна.
Альбом «Medusa» отличается классным традиционным для дума звучанием, но при этом несет шлейф многолетнего экспериментаторства, обнажает интересный творческий подход к делу и доказывает вечную актуальность творчества коллектива.
Nick Holmes - Vocals
Greg Mackintosh - Lead Guitar
Aaron Aedy - Rhythm Guitar
Steve Edmondson - Bass Guitar
Waltteri Väyrynen - Drums
Код: выделить все
Exact Audio Copy V1.3 from 2. September 2016

EAC extraction logfile from 4. September 2017, 23:00

Paradise Lost / Medusa

Used drive  : ATAPI   iHAS122   W   Adapter: 2  ID: 0

Read mode               : Secure
Utilize accurate stream : Yes
Defeat audio cache      : Yes
Make use of C2 pointers : No

Read offset correction                      : 48
Overread into Lead-In and Lead-Out          : No
Fill up missing offset samples with silence : Yes
Delete leading and trailing silent blocks   : No
Null samples used in CRC calculations       : Yes
Used interface                              : Installed external ASPI interface

Used output format              : User Defined Encoder
Selected bitrate                : 1024 kBit/s
Quality                         : High
Add ID3 tag                     : No
Command line compressor         : C:\Program Files\FLAC\flac.exe
Additional command line options : -V -8 -T "Date=%year%" -T "Genre=%genre%" -T"COMMENT=Ripped by  Ilijan - ilko" -8 -V %source%

TOC of the extracted CD

     Track |   Start  |  Length  | Start sector | End sector
    ---------------------------------------------------------
        1  |  0:00.00 |  8:31.29 |         0    |    38353
        2  |  8:31.29 |  5:50.15 |     38354    |    64618
        3  | 14:21.44 |  3:41.71 |     64619    |    81264
        4  | 18:03.40 |  4:32.16 |     81265    |   101680
        5  | 22:35.56 |  6:22.12 |    101681    |   130342
        6  | 28:57.68 |  4:16.07 |    130343    |   149549
        7  | 33:14.00 |  3:52.37 |    149550    |   166986
        8  | 37:06.37 |  5:41.17 |    166987    |   192578
        9  | 42:47.54 |  3:59.64 |    192579    |   210567
       10  | 46:47.43 |  4:37.58 |    210568    |   231400

Range status and errors

Selected range

     Filename D:\ilko\Paradise Lost - Medusa.wav

     Peak level 99.9 %
     Extraction speed 3.8 X
     Range quality 100.0 %
     Test CRC D43355EB
     Copy CRC D43355EB
     Copy OK

No errors occurred

AccurateRip summary

Track  1  not present in database
Track  2  not present in database
Track  3  not present in database
Track  4  not present in database
Track  5  not present in database
Track  6  not present in database
Track  7  not present in database
Track  8  not present in database
Track  9  not present in database
Track 10  not present in database

None of the tracks are present in the AccurateRip database

End of status report

---- CUETools DB Plugin V2.1.6

[CTDB TOCID: TuivxL2eoMcxw1XMizH8UFLemPc-] found
Submit result: TuivxL2eoMcxw1XMizH8UFLemPc- has been confirmed
Track | CTDB Status
  1   | (49/49) Accurately ripped
  2   | (49/49) Accurately ripped
  3   | (49/49) Accurately ripped
  4   | (49/49) Accurately ripped
  5   | (49/49) Accurately ripped
  6   | (49/49) Accurately ripped
  7   | (49/49) Accurately ripped
  8   | (49/49) Accurately ripped
  9   | (49/49) Accurately ripped
 10   | (48/49) Accurately ripped

==== Log checksum 062D1F2C31D4A757F1252E74877213CD8E8ABDEC325AF189CA9B51579EA874E8 ====
Код: выделить все
REM GENRE "Doom/Gothic Metal"
REM DATE 2017
REM DISCID 9E0C0D0A
REM COMMENT "ExactAudioCopy v1.3"
PERFORMER "Paradise Lost"
TITLE "Medusa"
FILE "Paradise Lost - Medusa.flac" WAVE
  TRACK 01 AUDIO
    TITLE "Fearless Sky"
    PERFORMER "Paradise Lost"
    INDEX 01 00:00:00
  TRACK 02 AUDIO
    TITLE "Gods of Ancient"
    PERFORMER "Paradise Lost"
    INDEX 01 08:31:29
  TRACK 03 AUDIO
    TITLE "From the Gallows"
    PERFORMER "Paradise Lost"
    INDEX 01 14:21:44
  TRACK 04 AUDIO
    TITLE "The Longest Winter"
    PERFORMER "Paradise Lost"
    INDEX 01 18:03:40
  TRACK 05 AUDIO
    TITLE "Medusa"
    PERFORMER "Paradise Lost"
    INDEX 01 22:35:56
  TRACK 06 AUDIO
    TITLE "No Passage for the Dead"
    PERFORMER "Paradise Lost"
    INDEX 01 28:57:68
  TRACK 07 AUDIO
    TITLE "Blood & Chaos"
    PERFORMER "Paradise Lost"
    INDEX 01 33:14:00
  TRACK 08 AUDIO
    TITLE "Until the Grave"
    PERFORMER "Paradise Lost"
    INDEX 01 37:06:37
  TRACK 09 AUDIO
    TITLE "Shrines (Bonus Track)"
    PERFORMER "Paradise Lost"
    INDEX 01 42:47:54
  TRACK 10 AUDIO
    TITLE "Symbolic Virtue (Bonus Track)"
    PERFORMER "Paradise Lost"
    INDEX 01 46:47:43
Код: выделить все
-----------------------

DON'T MODIFY THIS FILE

-----------------------

PERFORMER: auCDtect Task Manager, ver. 1.6.0 RC1 build 1.6.0.1
Copyright (c) 2008-2010 y-soft. All rights reserved
http://y-soft.org

ANALYZER: auCDtect: CD records authenticity detector, version 0.8.2
Copyright (c) 2004 Oleg Berngardt. All rights reserved.
Copyright (c) 2004 Alexander Djourik. All rights reserved.

FILE: Paradise Lost - Medusa.flac
  Size: 385465202 Hash: FB9C2652363A74BBBB719CA2EB9E2C3D Accuracy: -m0
  Conclusion: CDDA 100%
  Signature: 9B0940D6AC66B9AF585ECB94E20BA8271CE31F27

YouTubeYouTube
Время раздачи: 24/7 (до появления первых 3-5 скачавших)


Поглощение/вытеснение
Только с согласия релизера

Bigbeer
[NNM-Club.name]_Paradise Lost - Medusa [Limited Edition] (2017).torrent
 Торрент:   Зарегистрирован
 
Зарегистрируйтесь и скачайте торрент!
19,4 KB
Free Leech
Примагнититься
 Зарегистрирован:   17 Сен 2017 07:20:25
 Размер:   454 MB  (
 Рейтинг:    (Голосов: 8)
 Поблагодарили:   41
 Проверка:   Оформление проверено модератором 17 Сен 2017 12:14:07
Как cкачать  ·  Как раздать  ·  Правильно оформить  ·  Поднять ратио!  
хинин
RG Книги
 
Стаж: 7 лет 10 мес.
Сообщений: 3450
Ratio: 24,698
Раздал: 29,9 TB
Поблагодарили: 181049
100%
russia.gif
После Tragic idol всё плохо.
Показать сообщения:   
Начать новую тему   Ответить на тему    Торрент-трекер NNM-Club -> Rock, Alternative, Punk, Metal -> Metal (Lossless) Часовой пояс: GMT + 3
Страница 1 из 1