Интеллигентный торрент-трекер
canvas not supported
Нас вместе: 4 293 110

Ahab - 4 Album (2006 - 2015) Discography [FLAC|Lossless|image + .cue] <Funeral Doom Metal>


 
 
RSS
Начать новую тему   Ответить на тему    Торрент-трекер NNM-Club -> Rock, Alternative, Punk, Metal -> Metal (Lossless)
Автор Сообщение
zavyal87 ®
 
Стаж: 3 года 6 мес.
Сообщений: 149
Ratio: 244,202
Поблагодарили: 2846
100%
russia.gif
Ahab - 4 Album (2006 - 2015) Discography


Жанр: Funeral Doom Metal
Страна: Germany
Лейбл: Napalm Records
Продолжительность: 04:34:06
Кодек: FLAC
Битрейт: Lossless
Тип рипа: image + .cue

Описание: Когда Герман Мелвилль опубликовал в далеком 1851 году свой роман «Моби Дик», он вряд ли мог себе представить, что полтора столетия спустя его книга станет глубоким, темным колодцем, откуда будут черпать вдохновение одни из самых мрачных представителей atmospheric-funeral-doom - группа Ahab, названная по имени обладавшего тираническими замашками капитана китобойного судна. Ahab облекли слова Мелвилля в музыкальную форму и, уловив настроение книги, дали этой истории новую жизнь.
Album
Жанр: Funeral Doom Metal
Издание: Napalm Records - NPR 198
Продолжительноcть: 01:07:33
Источник (релизер): darkbrides

Кодек: FLAC
Битрейт: Lossles
Тип рипа: image + .cue
Наличие сканов: Да, полные

Треклиcт:
01. Below The Sun (11:45)
02. The Pacific (10:07)
03. Old Thunder (9:54)
04. Of The Monstrous Pictures Of Whales (1:46)
05. The Sermon (12:35)
06. The Hunt (11:13)
07. Ahab's Oath (10:11)
- Daniel Droste - lead vocals, guitars, keyboards
- Christian Hector - guitars
- Stephan Adolph - bass, vocals

Additional musicians:
- Corny Althammer - drums
Код: выделить все
Exact Audio Copy V1.1 from 23. June 2015

EAC extraction logfile from 20. September 2016, 13:20

Ahab / The Call Of The Wretched Sea

Used drive  : ASUS    DRW-1612BL   Adapter: 2  ID: 0

Read mode               : Secure
Utilize accurate stream : Yes
Defeat audio cache      : Yes
Make use of C2 pointers : No

Read offset correction                      : 6
Overread into Lead-In and Lead-Out          : No
Fill up missing offset samples with silence : Yes
Delete leading and trailing silent blocks   : No
Null samples used in CRC calculations       : Yes
Used interface                              : Installed external ASPI interface

Used output format              : User Defined Encoder
Selected bitrate                : 128 kBit/s
Quality                         : High
Add ID3 tag                     : No
Command line compressor         : C:\Program Files\EAC\Exact Audio Copy\Flac\flac.exe
Additional command line options : -V -8 -T "Date=%year%" -T "Genre=%genre%" %source%

TOC of the extracted CD

     Track |   Start  |  Length  | Start sector | End sector
    ---------------------------------------------------------
        1  |  0:00.00 | 11:45.29 |         0    |    52903
        2  | 11:45.29 | 10:07.36 |     52904    |    98464
        3  | 21:52.65 |  9:54.18 |     98465    |   143032
        4  | 31:47.08 |  1:46.15 |    143033    |   150997
        5  | 33:33.23 | 12:35.06 |    150998    |   207628
        6  | 46:08.29 | 11:13.12 |    207629    |   258115
        7  | 57:21.41 | 10:11.12 |    258116    |   303952

Range status and errors

Selected range

     Filename C:\darkbrides\Ahab - The Call Of The Wretched Sea.wav

     Peak level 100.0 %
     Extraction speed 4.8 X
     Range quality 99.9 %
     Test CRC 82C94EEA
     Copy CRC 82C94EEA
     Copy OK

No errors occurred

AccurateRip summary

Track  1  accurately ripped (confidence 15)  [19D9085E]  (AR v2)
Track  2  accurately ripped (confidence 15)  [506A61C0]  (AR v2)
Track  3  accurately ripped (confidence 15)  [D237538F]  (AR v2)
Track  4  accurately ripped (confidence 15)  [2102C252]  (AR v2)
Track  5  accurately ripped (confidence 15)  [4FFA40FA]  (AR v2)
Track  6  accurately ripped (confidence 15)  [8E431E2B]  (AR v2)
Track  7  accurately ripped (confidence 15)  [F257E158]  (AR v2)

All tracks accurately ripped

End of status report

---- CUETools DB Plugin V2.1.6

[CTDB TOCID: ysNLjNyoyC1YvKPeOMlalaBEKGU-] found
Submit result: ysNLjNyoyC1YvKPeOMlalaBEKGU- has been confirmed
Track | CTDB Status
  1   | (58/58) Accurately ripped
  2   | (58/58) Accurately ripped
  3   | (58/58) Accurately ripped
  4   | (58/58) Accurately ripped
  5   | (57/58) Accurately ripped
  6   | (57/58) Accurately ripped
  7   | (58/58) Accurately ripped

==== Log checksum 5855DE2D8108B16F1DE9F0ADDEC59419305A5FFED1498BA1F65D2AB5332AC624 ====
Код: выделить все
REM GENRE Doom
REM DATE 2006
REM DISCID 520FD407
REM COMMENT "ExactAudioCopy v1.1"
PERFORMER "Ahab"
TITLE "The Call Of The Wretched Sea"
FILE "Ahab - The Call Of The Wretched Sea.flac" WAVE
  TRACK 01 AUDIO
    TITLE "Below The Sun"
    PERFORMER "Ahab"
    INDEX 01 00:00:00
  TRACK 02 AUDIO
    TITLE "The Pacific"
    PERFORMER "Ahab"
    INDEX 00 11:43:29
    INDEX 01 11:45:29
  TRACK 03 AUDIO
    TITLE "Old Thunder"
    PERFORMER "Ahab"
    INDEX 00 21:50:65
    INDEX 01 21:52:65
  TRACK 04 AUDIO
    TITLE "Of The Monstrous Pictures Of Whales"
    PERFORMER "Ahab"
    INDEX 01 31:47:08
  TRACK 05 AUDIO
    TITLE "The Sermon"
    PERFORMER "Ahab"
    INDEX 01 33:33:23
  TRACK 06 AUDIO
    TITLE "The Hunt"
    PERFORMER "Ahab"
    INDEX 00 46:06:29
    INDEX 01 46:08:29
  TRACK 07 AUDIO
    TITLE "Ahab's Oath"
    PERFORMER "Ahab"
    INDEX 00 57:19:41
    INDEX 01 57:21:41
Код: выделить все
-----------------------

DON'T MODIFY THIS FILE

-----------------------

PERFORMER: auCDtect Task Manager, ver. 1.6.0 RC1 build 1.6.0.1
Copyright (c) 2008-2010 y-soft. All rights reserved
http://y-soft.org

ANALYZER: auCDtect: CD records authenticity detector, version 0.8.2
Copyright (c) 2004 Oleg Berngardt. All rights reserved.
Copyright (c) 2004 Alexander Djourik. All rights reserved.

FILE: Ahab - The Call Of The Wretched Sea.flac
  Size: 455211347 Hash: 070AB0689FCCF3A6CAB52B158C6ED864 Accuracy: -m0
  Conclusion: CDDA 100%
  Signature: 40C0B1CEFE97AEA95929998CBC2FEE62457EC292
Жанр: Funeral Doom Metal
Издание: Napalm Records - NPR 300
Продолжительноcть: 01:07:34
Источник (релизер): darkbrides

Кодек: FLAC
Битрейт: Lossles
Тип рипа: image + .cue
Наличие сканов: Да, полные

Треклиcт:
01. Yet Another Raft Of The Medusa (Pollard's Weakness) (12:40)
02. The Divinity Of Oceans (11:03)
03. O Father Sea (7:07)
04. Redemption Lost (10:25)
05. Tombstone Carousel (7:27)
06. Gnawing Bones (Coffin's Lot) (10:48)
07. Nickerson's Theme (8:06)
- Cornelius Althammer – drums
- Daniel Droste – vocals, guitars
- Christian Hector – guitars
- Stephan Wandernoth – bass
Код: выделить все
Exact Audio Copy V1.1 from 23. June 2015

EAC extraction logfile from 21. September 2016, 12:34

Ahab / The Divinity of Oceans

Used drive  : ASUS    DRW-1612BL   Adapter: 2  ID: 0

Read mode               : Secure
Utilize accurate stream : Yes
Defeat audio cache      : Yes
Make use of C2 pointers : No

Read offset correction                      : 6
Overread into Lead-In and Lead-Out          : No
Fill up missing offset samples with silence : Yes
Delete leading and trailing silent blocks   : No
Null samples used in CRC calculations       : Yes
Used interface                              : Installed external ASPI interface

Used output format              : User Defined Encoder
Selected bitrate                : 128 kBit/s
Quality                         : High
Add ID3 tag                     : No
Command line compressor         : C:\Program Files\EAC\Exact Audio Copy\Flac\flac.exe
Additional command line options : -V -8 -T "Date=%year%" -T "Genre=%genre%" %source%

TOC of the extracted CD

     Track |   Start  |  Length  | Start sector | End sector
    ---------------------------------------------------------
        1  |  0:00.00 | 12:40.11 |         0    |    57010
        2  | 12:40.11 | 11:02.54 |     57011    |   106714
        3  | 23:42.65 |  7:06.45 |    106715    |   138709
        4  | 30:49.35 | 10:24.48 |    138710    |   185557
        5  | 41:14.08 |  7:26.56 |    185558    |   219063
        6  | 48:40.64 | 10:48.01 |    219064    |   267664
        7  | 59:28.65 |  8:05.43 |    267665    |   304082

Range status and errors

Selected range

     Filename C:\darkbrides\Ahab - The Divinity of Oceans.wav

     Peak level 96.0 %
     Extraction speed 9.0 X
     Range quality 100.0 %
     Test CRC 400AA288
     Copy CRC 400AA288
     Copy OK

No errors occurred

AccurateRip summary

Track  1  accurately ripped (confidence 22)  [641B8ACF]  (AR v2)
Track  2  accurately ripped (confidence 22)  [4672CA37]  (AR v2)
Track  3  accurately ripped (confidence 22)  [882A76E7]  (AR v2)
Track  4  accurately ripped (confidence 22)  [8506655D]  (AR v2)
Track  5  accurately ripped (confidence 22)  [5BCCB402]  (AR v2)
Track  6  accurately ripped (confidence 22)  [36B530A4]  (AR v2)
Track  7  accurately ripped (confidence 23)  [DF8B6044]  (AR v2)

All tracks accurately ripped

End of status report

---- CUETools DB Plugin V2.1.6

[CTDB TOCID: .B8b13VhpANlsi5DBhehkIDVU5A-] found
Submit result: .B8b13VhpANlsi5DBhehkIDVU5A- has been confirmed
Track | CTDB Status
  1   | (50/51) Accurately ripped
  2   | (51/51) Accurately ripped
  3   | (51/51) Accurately ripped
  4   | (50/51) Accurately ripped
  5   | (51/51) Accurately ripped
  6   | (51/51) Accurately ripped
  7   | (51/51) Accurately ripped

==== Log checksum 42F09D5E29741031A8639B521941756CB68BE1C5616FEDBC541396100470EA5F ====
Код: выделить все
REM GENRE "Doom Metal"
REM DATE 2009
REM DISCID 5C0FD607
REM COMMENT "ExactAudioCopy v1.1"
PERFORMER "Ahab"
TITLE "The Divinity of Oceans"
FILE "Ahab - The Divinity of Oceans.flac" WAVE
  TRACK 01 AUDIO
    TITLE "Yet Another Raft Of The Medusa (Pollard's Weakness)"
    PERFORMER "Ahab"
    INDEX 01 00:00:00
  TRACK 02 AUDIO
    TITLE "The Divinity Of Oceans"
    PERFORMER "Ahab"
    INDEX 00 12:38:11
    INDEX 01 12:40:11
  TRACK 03 AUDIO
    TITLE "O Father Sea"
    PERFORMER "Ahab"
    INDEX 00 23:40:65
    INDEX 01 23:42:65
  TRACK 04 AUDIO
    TITLE "Redemption Lost"
    PERFORMER "Ahab"
    INDEX 00 30:47:35
    INDEX 01 30:49:35
  TRACK 05 AUDIO
    TITLE "Tombstone Carousel"
    PERFORMER "Ahab"
    INDEX 00 41:12:08
    INDEX 01 41:14:08
  TRACK 06 AUDIO
    TITLE "Gnawing Bones (Coffin's Lot)"
    PERFORMER "Ahab"
    INDEX 00 48:38:64
    INDEX 01 48:40:64
  TRACK 07 AUDIO
    TITLE "Nickerson's Theme"
    PERFORMER "Ahab"
    INDEX 00 59:26:65
    INDEX 01 59:28:65
Код: выделить все
-----------------------

DON'T MODIFY THIS FILE

-----------------------

PERFORMER: auCDtect Task Manager, ver. 1.6.0 RC1 build 1.6.0.1
Copyright (c) 2008-2010 y-soft. All rights reserved
http://y-soft.org

ANALYZER: auCDtect: CD records authenticity detector, version 0.8.2
Copyright (c) 2004 Oleg Berngardt. All rights reserved.
Copyright (c) 2004 Alexander Djourik. All rights reserved.

FILE: Ahab - The Divinity of Oceans.flac
  Size: 390660248 Hash: 43D3EE46F637AEAC6EAE5A01BFB382CA Accuracy: -m0
  Conclusion: CDDA 100%
  Signature: 6AD241A6A3358CCEC5CE2F156A732C02092FB5B4
Жанр: Funeral Doom Metal
Издание: Napalm Records - NPR 426
Продолжительноcть: 01:12:05
Источник (релизер): darkbrides

Кодек: FLAC
Битрейт: Lossles
Тип рипа: image + .cue
Наличие сканов: Да, полные

Треклиcт:
01. Further South (8:56)
02. Aeons Elapse (12:45)
03. Deliverance (Shouting at the Dead) (7:53)
04. Antarctica (The Polymorphess) (11:46)
05. Fathoms Deep Below (9:08)
06. The Giant (10:36)
07. Time's Like Molten Lead (11:02)
- Daniel Droste – vocals, guitar, keyboards
- Christian Hector – guitar
- Stephan Wandernoth – bass
- Cornerlius Althammer – drums
Код: выделить все
Exact Audio Copy V1.1 from 23. June 2015

EAC extraction logfile from 21. September 2016, 13:12

Ahab / The Giant

Used drive  : ASUS    DRW-1612BL   Adapter: 2  ID: 0

Read mode               : Secure
Utilize accurate stream : Yes
Defeat audio cache      : Yes
Make use of C2 pointers : No

Read offset correction                      : 6
Overread into Lead-In and Lead-Out          : No
Fill up missing offset samples with silence : Yes
Delete leading and trailing silent blocks   : No
Null samples used in CRC calculations       : Yes
Used interface                              : Installed external ASPI interface

Used output format              : User Defined Encoder
Selected bitrate                : 128 kBit/s
Quality                         : High
Add ID3 tag                     : No
Command line compressor         : C:\Program Files\EAC\Exact Audio Copy\Flac\flac.exe
Additional command line options : -V -8 -T "Date=%year%" -T "Genre=%genre%" %source%

TOC of the extracted CD

     Track |   Start  |  Length  | Start sector | End sector
    ---------------------------------------------------------
        1  |  0:00.00 |  8:55.71 |         0    |    40195
        2  |  8:55.71 | 12:44.39 |     40196    |    97534
        3  | 21:40.35 |  7:52.39 |     97535    |   132973
        4  | 29:32.74 | 11:45.45 |    132974    |   185893
        5  | 41:18.44 |  9:07.57 |    185894    |   226975
        6  | 50:26.26 | 10:36.29 |    226976    |   274704
        7  | 61:02.55 | 11:02.28 |    274705    |   324382

Range status and errors

Selected range

     Filename C:\darkbrides\Ahab - The Giant.wav

     Peak level 98.6 %
     Extraction speed 4.9 X
     Range quality 100.0 %
     Test CRC 805EC66A
     Copy CRC 805EC66A
     Copy OK

No errors occurred

AccurateRip summary

Track  1  accurately ripped (confidence 32)  [5294921D]  (AR v2)
Track  2  accurately ripped (confidence 32)  [0B7FB091]  (AR v2)
Track  3  accurately ripped (confidence 32)  [4145D252]  (AR v2)
Track  4  accurately ripped (confidence 32)  [CD192490]  (AR v2)
Track  5  accurately ripped (confidence 32)  [3537B570]  (AR v2)
Track  6  accurately ripped (confidence 32)  [F77921F4]  (AR v2)
Track  7  accurately ripped (confidence 31)  [75A33EBE]  (AR v2)

All tracks accurately ripped

End of status report

---- CUETools DB Plugin V2.1.6

[CTDB TOCID: 0tyAJG67sMWawmNxwcdAb2jiKu0-] found
Submit result: 0tyAJG67sMWawmNxwcdAb2jiKu0- has been confirmed
Track | CTDB Status
  1   | (40/40) Accurately ripped
  2   | (40/40) Accurately ripped
  3   | (40/40) Accurately ripped
  4   | (40/40) Accurately ripped
  5   | (40/40) Accurately ripped
  6   | (40/40) Accurately ripped
  7   | (40/40) Accurately ripped

==== Log checksum 751296121B1E3012BECF55220074ABDB6C2D42D5382BDB80E4B776F14A0C4E43 ====
Код: выделить все
REM GENRE "Doom Metal"
REM DATE 2012
REM DISCID 5810E507
REM COMMENT "ExactAudioCopy v1.1"
PERFORMER "Ahab"
TITLE "The Giant"
FILE "Ahab - The Giant.flac" WAVE
  TRACK 01 AUDIO
    TITLE "Further South"
    PERFORMER "Ahab"
    INDEX 01 00:00:00
  TRACK 02 AUDIO
    TITLE "Aeons Elapse"
    PERFORMER "Ahab"
    INDEX 00 08:53:59
    INDEX 01 08:55:71
  TRACK 03 AUDIO
    TITLE "Deliverance (Shouting at the Dead)"
    PERFORMER "Ahab"
    INDEX 00 21:40:17
    INDEX 01 21:40:35
  TRACK 04 AUDIO
    TITLE "Antarctica (The Polymorphess)"
    PERFORMER "Ahab"
    INDEX 00 29:32:49
    INDEX 01 29:32:74
  TRACK 05 AUDIO
    TITLE "Fathoms Deep Below"
    PERFORMER "Ahab"
    INDEX 00 41:18:34
    INDEX 01 41:18:44
  TRACK 06 AUDIO
    TITLE "The Giant"
    PERFORMER "Ahab"
    INDEX 00 50:26:21
    INDEX 01 50:26:26
  TRACK 07 AUDIO
    TITLE "Time's Like Molten Lead"
    PERFORMER "Ahab"
    INDEX 00 61:02:50
    INDEX 01 61:02:55
Код: выделить все
-----------------------

DON'T MODIFY THIS FILE

-----------------------

PERFORMER: auCDtect Task Manager, ver. 1.6.0 RC1 build 1.6.0.1
Copyright (c) 2008-2010 y-soft. All rights reserved
http://y-soft.org

ANALYZER: auCDtect: CD records authenticity detector, version 0.8.2
Copyright (c) 2004 Oleg Berngardt. All rights reserved.
Copyright (c) 2004 Alexander Djourik. All rights reserved.

FILE: Ahab - The Giant.flac
  Size: 477685040 Hash: 4E3B54E13B7D90D96A57D8620600AD52 Accuracy: -m0
  Conclusion: CDDA 100%
  Signature: 2528FFA3F61BEAC493E6AA444534482E9B3B3BEC
Жанр: Funeral Doom Metal
Издание: Napalm Records - NPR 598 LTD
Продолжительноcть: 01:06:54
Источник (релизер): darkbrides

Кодек: FLAC
Битрейт: Lossles
Тип рипа: image + .cue
Наличие сканов: Да, полные

Треклиcт:
01. The Isle (10:11)
02. The Thing That Made Search (11:07)
03. Red Foam (The Great Storm) (6:25)
04. The Weedmen (15:00)
05. To Mourn Job (13:39)
06. The Light In The Weed (Mary Madison) (10:31)
- Daniel Droste – vocals, guitar, keyboards
- Christian Hector – guitar
- Stephan Wandernoth – bass
- Cornerlius Althammer – drums
Код: выделить все
Exact Audio Copy V1.1 from 23. June 2015

EAC extraction logfile from 21. September 2016, 13:48

Ahab / The Boats Of The Glen Carrig

Used drive  : ASUS    DRW-1612BL   Adapter: 2  ID: 0

Read mode               : Secure
Utilize accurate stream : Yes
Defeat audio cache      : Yes
Make use of C2 pointers : No

Read offset correction                      : 6
Overread into Lead-In and Lead-Out          : No
Fill up missing offset samples with silence : Yes
Delete leading and trailing silent blocks   : No
Null samples used in CRC calculations       : Yes
Used interface                              : Installed external ASPI interface

Used output format              : User Defined Encoder
Selected bitrate                : 128 kBit/s
Quality                         : High
Add ID3 tag                     : No
Command line compressor         : C:\Program Files\EAC\Exact Audio Copy\Flac\flac.exe
Additional command line options : -V -8 -T "Date=%year%" -T "Genre=%genre%" %source%

TOC of the extracted CD

     Track |   Start  |  Length  | Start sector | End sector
    ---------------------------------------------------------
        1  |  0:00.00 | 10:10.69 |         0    |    45818
        2  | 10:10.69 | 11:06.49 |     45819    |    95817
        3  | 21:17.43 |  6:25.17 |     95818    |   124709
        4  | 27:42.60 | 15:00.30 |    124710    |   192239
        5  | 42:43.15 | 13:39.25 |    192240    |   253689
        6  | 56:22.40 | 10:31.23 |    253690    |   301037

Range status and errors

Selected range

     Filename C:\darkbrides\Ahab - The Boats Of The Glen Carrig.wav

     Peak level 100.0 %
     Extraction speed 4.6 X
     Range quality 100.0 %
     Test CRC F4DC3F70
     Copy CRC F4DC3F70
     Copy OK

No errors occurred

AccurateRip summary

Track  1  accurately ripped (confidence 19)  [1C72B772]  (AR v2)
Track  2  accurately ripped (confidence 19)  [E129B784]  (AR v2)
Track  3  accurately ripped (confidence 19)  [AEFCF1F9]  (AR v2)
Track  4  accurately ripped (confidence 19)  [AC158492]  (AR v2)
Track  5  accurately ripped (confidence 19)  [8171903C]  (AR v2)
Track  6  accurately ripped (confidence 19)  [6D0A4D30]  (AR v2)

All tracks accurately ripped

End of status report

---- CUETools DB Plugin V2.1.6

[CTDB TOCID: k9q3u_3aiOKmo3MAPxDEtHkmBck-] found
Submit result: k9q3u_3aiOKmo3MAPxDEtHkmBck- has been confirmed, k9q3u_3aiOKmo3MAPxDEtHkmBck- has been confirmed
Track | CTDB Status
  1   | (102/103) Accurately ripped
  2   | (101/103) Accurately ripped
  3   | (101/103) Accurately ripped
  4   | (101/103) Accurately ripped
  5   | (102/103) Accurately ripped
  6   | (101/103) Accurately ripped

==== Log checksum E2C468F3342308240DC815B49F75E57F3F35215D31DA541A277DEA89A44C3AB5 ====
Код: выделить все
REM GENRE "Doom Metal"
REM DATE 2015
REM DISCID 530FAD06
REM COMMENT "ExactAudioCopy v1.1"
PERFORMER "Ahab"
TITLE "The Boats Of The Glen Carrig"
FILE "Ahab - The Boats Of The Glen Carrig.flac" WAVE
  TRACK 01 AUDIO
    TITLE "The Isle"
    PERFORMER "Ahab"
    INDEX 01 00:00:00
  TRACK 02 AUDIO
    TITLE "The Thing That Made Search"
    PERFORMER "Ahab"
    INDEX 01 10:10:69
  TRACK 03 AUDIO
    TITLE "Red Foam (The Great Storm)"
    PERFORMER "Ahab"
    INDEX 01 21:17:43
  TRACK 04 AUDIO
    TITLE "The Weedmen"
    PERFORMER "Ahab"
    INDEX 01 27:42:60
  TRACK 05 AUDIO
    TITLE "To Mourn Job"
    PERFORMER "Ahab"
    INDEX 01 42:43:15
  TRACK 06 AUDIO
    TITLE "The Light In The Weed (Mary Madison)"
    PERFORMER "Ahab"
    INDEX 01 56:22:40
Код: выделить все
-----------------------

DON'T MODIFY THIS FILE

-----------------------

PERFORMER: auCDtect Task Manager, ver. 1.6.0 RC1 build 1.6.0.1
Copyright (c) 2008-2010 y-soft. All rights reserved
http://y-soft.org

ANALYZER: auCDtect: CD records authenticity detector, version 0.8.2
Copyright (c) 2004 Oleg Berngardt. All rights reserved.
Copyright (c) 2004 Alexander Djourik. All rights reserved.

FILE: Ahab - The Boats Of The Glen Carrig.flac
  Size: 437127925 Hash: B22FD2023C7C3C6BA2EEC339F19585B9 Accuracy: -m0
  Conclusion: CDDA 100%
  Signature: 111672231B09FA990D2BAF23E70689D6BD8AACC9


Группа была основана в 2004 году в Германии Daniel’ем Droste’ом (вокал, гитара, синтезаторы), Stephan’ом Adolph’ом - (бас-гитара, гитара, бэк-вокал) и Chris’ом R. Hector’ом (гитара). В том же году они записывают демо «The Stream», состоящее из одной песни, а в 2005-м - демо «The Oath», выпущенное на CD в количестве 30 копий. После выхода этого демо, группа заключает контракт с Napalm Records и получает возможность записать студийный альбом. Им становится «The Call of the Wretched Sea», вышедший в сентябре 2006 года. В 2007 году к группе присоединяется ударник Cornelius «Dementum» Althammer. Тогда же группа переиздает «The Oath», но уже на Deviant Records. Карьера этой многообещающей команды еще только началась и, хочется верить, что вскоре они порадуют слушателей отличными альбомами.
Состав:
Даниэль Дрост — гитара, вокал, клавишные
Кристиан Гектор - гитара
Стефан Вандернот - бас-гитара
Корнелиус Альтхаммер - ударные
Бывшие участники:
Стефан Адольф - бас-гитара, гитара, вокал

Треклист:
Список альбомов:
2006 - The Call of the Wretched Sea
2009 - The Divinity of Oceans
2012 - The Giant
2015 - The Boats Of The Glen Carrig

YouTubeYouTube

Время раздачи: 24/7 (до появления первых 3-5 скачавших)


Поглощение/вытеснение
Только с согласия релизера

Bigbeer
[NNM-Club.name]_Ahab.torrent
 Торрент:   Зарегистрирован
 
Зарегистрируйтесь и скачайте торрент!
30,5 KB

Примагнититься
 Зарегистрирован:   22 Сен 2017 19:22:54
 Размер:   1,86 GB  (
 Рейтинг:    (Голосов: 2)
 Поблагодарили:   26
 Проверка:   Оформление проверено модератором 23 Сен 2017 11:29:47
Как cкачать  ·  Как раздать  ·  Правильно оформить  ·  Поднять ратио!  
Показать сообщения:   
Начать новую тему   Ответить на тему    Торрент-трекер NNM-Club -> Rock, Alternative, Punk, Metal -> Metal (Lossless) Часовой пояс: GMT + 3
Страница 1 из 1