Интеллигентный торрент-трекер
canvas not supported
Нас вместе: 4 256 443

Garo: Vanishing Line / Гаро: Линия Схода [2017, TV, 8 из 24] HDTV 720p Raw+Rus


 
 
RSS
Начать новую тему   Ответить на тему    Торрент-трекер NNM-Club -> Аниме с озвучкой -> Онгоинги с озвучкой
Автор Сообщение
Ampho_DnB ®
RG Аниме
 
Стаж: 5 лет 10 мес.
Сообщений: 2730
Ratio: 181,922
Поблагодарили: 72210
100%
Откуда: дует?
roody.gif
Garo: Vanishing Line / Гаро: Линия Схода
Жанр: приключения, фэнтези
Тип: TV-сериал
Продолжительность: 8 из 24 эпизодов по 25 минут
Выпуск: c 07.10.2017
Автор: Амэмия Кэйта
Режиссер: Пак Сон Ху
Производство: MAPPA
Информационные ссылки: AniDB || World Art || MAL || ANN
Релиз подготовлен студией Студийная банда
  • Тип озвучки: Многоголосая, закадровая

Описание:
Сюжет аниме переносит нас в некий город под названием Рассел. Жителям этого города вряд ли приходится на что-то жаловаться, он явно не относится к третьему миру, наоборот, город Рассел может похвастаться своим благосостоянием и высоким развитием. Но какая же бочка мёда без ложки дёгтя? Особенно, когда эта ложка в скором времени собирается испортить весь мёд до последней капли. Некая группа людей устроила заговор, результаты которого потрясут весь мир без исключения.

Парень по имени Сворд узнал об этом заговоре в самом его зачатке, и, пока никто из горожан ни о чём не догадывался, он пытался раскрыть этот замысел. Тем не менее, данные настолько засекречены, что единственной подсказкой становится слово "Эльдорадо”. Посреди своих поисков, Сворд потерял сестру и повстречал единомышленницу по имени Софи, чей брат таинственно исчез, оставив Софи ломать голову над значением слова "Эльдорадо”. Они решили объединить свои силы, чтобы разгадать замысел, который, словно ржавчина, покрывает город Рассел, а также найти своих родных.
Качество: HDTVRip | Энкод: Leopard-Raws
Язык озвучки: Японский и Русский
Формат: MKV
Видео: x264, 1280x720, ~3 517 kbps, 23.976 fps
Аудио: AAC, 192 kbps, 48.0 kHz, 2 ch
Аудио: AAC, 187 kbps, 48.0 kHz, 2 ch
01. Sword
02. Luke
03. Gina
04. Brother
05. Ring
06. Intricacy
07. Scout
08. Knight
General
Unique ID : 191455035468690675098340862242272160283 (0x9008E6096C59314C8B25E8782A21AA1B)
Complete name : Garo - Vanishing Line [StudioBand]\[Studio Band] Garo - Vanishing Line - 01 [720p].mkv
Format : Matroska
Format version : Version 4 / Version 2
File size : 679 MiB
Duration : 24 min 25 s
Overall bit rate : 3 884 kb/s
Encoded date : UTC 2017-10-18 17:27:16
Writing application : mkvmerge v17.0.0 ('Be Ur Friend') 64-bit
Writing library : libebml v1.3.5 + libmatroska v1.4.8

Video
ID : 1
Format : AVC
Format/Info : Advanced Video Codec
Format profile : High@L4.1
Format settings : CABAC / 4 Ref Frames
Format settings, CABAC : Yes
Format settings, RefFrames : 4 frames
Codec ID : V_MPEG4/ISO/AVC
Duration : 24 min 19 s
Bit rate : 3 517 kb/s
Width : 1 280 pixels
Height : 720 pixels
Display aspect ratio : 16:9
Frame rate mode : Constant
Frame rate : 23.976 (24000/1001) FPS
Color space : YUV
Chroma subsampling : 4:2:0
Bit depth : 8 bits
Scan type : Progressive
Bits/(Pixel*Frame) : 0.159
Stream size : 612 MiB (90%)
Writing library : x264 core 129 r2245+729M 1a52e03
Encoding settings : cabac=1 / ref=4 / deblock=1:1:-1 / analyse=0x3:0x113 / me=umh / subme=9 / psy=1 / fade_compensate=0.00 / psy_rd=1.00:0.00 / mixed_ref=1 / me_range=24 / chroma_me=1 / trellis=2 / 8x8dct=1 / cqm=0 / deadzone=21,11 / fast_pskip=1 / chroma_qp_offset=-2 / threads=8 / lookahead_threads=1 / sliced_threads=0 / nr=0 / decimate=1 / interlaced=0 / bluray_compat=0 / constrained_intra=0 / fgo=0 / bframes=9 / b_pyramid=2 / b_adapt=2 / b_bias=0 / direct=1 / weightb=1 / open_gop=0 / weightp=2 / keyint=240 / keyint_min=24 / scenecut=40 / intra_refresh=0 / rc=crf / mbtree=0 / crf=17.5 / qcomp=0.72 / qpmin=0 / qpmax=69 / qpstep=4 / ip_ratio=1.40 / pb_ratio=1.30 / aq=1:0.85
Language : Japanese
Default : Yes
Forced : No
Color range : Limited
Color primaries : BT.709
Transfer characteristics : BT.709
Matrix coefficients : BT.709

Audio #1
ID : 2
Format : AAC
Format/Info : Advanced Audio Codec
Format profile : LC
Codec ID : A_AAC-2
Duration : 24 min 25 s
Bit rate : 187 kb/s
Channel(s) : 2 channels
Channel positions : Front: L R
Sampling rate : 48.0 kHz
Frame rate : 46.875 FPS (1024 SPF)
Compression mode : Lossy
Stream size : 32.7 MiB (5%)
Language : Russian
Default : Yes
Forced : No

Audio #2
ID : 3
Format : AAC
Format/Info : Advanced Audio Codec
Format profile : LC
Codec ID : A_AAC-2
Duration : 24 min 19 s
Bit rate : 192 kb/s
Channel(s) : 2 channels
Channel positions : Front: L R
Sampling rate : 48.0 kHz
Frame rate : 46.875 FPS (1024 SPF)
Compression mode : Lossy
Stream size : 33.4 MiB (5%)
Language : Japanese
Default : No
Forced : No


Время раздачи: До первых сидов
[NNM-Club.name]_Garo - Vanishing Line [StudioBand].torrent
 Торрент:   Зарегистрирован
 
Зарегистрируйтесь и скачайте торрент!
11,6 KB

Примагнититься
 Зарегистрирован:   29 Ноя 2017 00:03:34
 Размер:   4,26 GB  (
 Рейтинг:   3,6 (Голосов: 17)
 Поблагодарили:   40
 Проверка:   Оформление проверено модератором 29 Ноя 2017 00:08:50
Как cкачать  ·  Как раздать  ·  Правильно оформить  ·  Поднять ратио!  
Ampho_DnB ®
RG Аниме
 
Стаж: 5 лет 10 мес.
Сообщений: 2730
Ratio: 181,922
Поблагодарили: 72210
100%
Откуда: дует?
roody.gif
Торрент полностью обновлен. Заменен рип, добавлена 2 серия.
popt2t
Стаж: 7 лет 5 мес.
Сообщений: 55
Ratio: 2,49
89.49%
Откуда: Каланчак
ukraine.gif
Кто смотрел? Как оно?

_________________
Ampho_DnB ®
RG Аниме
 
Стаж: 5 лет 10 мес.
Сообщений: 2730
Ratio: 181,922
Поблагодарили: 72210
100%
Откуда: дует?
roody.gif
Торрент обновлен. Добавлена 3 серия.
Ampho_DnB ®
RG Аниме
 
Стаж: 5 лет 10 мес.
Сообщений: 2730
Ratio: 181,922
Поблагодарили: 72210
100%
Откуда: дует?
roody.gif
Торрент обновлен. Добавлена 4 серия.
Ampho_DnB ®
RG Аниме
 
Стаж: 5 лет 10 мес.
Сообщений: 2730
Ratio: 181,922
Поблагодарили: 72210
100%
Откуда: дует?
roody.gif
Торрент обновлен. Добавлены 5 и 6 серии.
Ampho_DnB ®
RG Аниме
 
Стаж: 5 лет 10 мес.
Сообщений: 2730
Ratio: 181,922
Поблагодарили: 72210
100%
Откуда: дует?
roody.gif
Торрент обновлен. Добавлена 7 серия.
Ampho_DnB ®
RG Аниме
 
Стаж: 5 лет 10 мес.
Сообщений: 2730
Ratio: 181,922
Поблагодарили: 72210
100%
Откуда: дует?
roody.gif
Торрент обновлен. Добавлена 8 серия.
Показать сообщения:   
Начать новую тему   Ответить на тему    Торрент-трекер NNM-Club -> Аниме с озвучкой -> Онгоинги с озвучкой Часовой пояс: GMT + 3
Страница 1 из 1