Интеллигентный торрент-трекер
canvas not supported
Нас вместе: 4 275 727

Ousama Game The Animation / King's Game The Animation / Королевская Игра [2017, TV, 4 из 12] WEB-DL 720p Raw+Rus


 
 
RSS
Начать новую тему   Ответить на тему    Торрент-трекер NNM-Club -> Аниме с озвучкой -> Онгоинги с озвучкой
Автор Сообщение
Ampho_DnB ®
RG Аниме
 
Стаж: 5 лет 10 мес.
Сообщений: 2638
Ratio: 180,54
Поблагодарили: 71719
100%
Откуда: дует?
roody.gif
Ousama Game The Animation / King's Game The Animation / Королевская Игра
Жанр: мистика, ужасы, драма, школа
Тип: TV-сериал
Продолжительность: 4 из 12 эпизодов по 25 минут
Выпуск: c 05.10.2017
Автор: Рэнда Хитори
Режиссер: Сасаки Токиёси
Производство: Seven
Информационные ссылки: AniDB || World Art || MAL || ANN
Релиз подготовлен студией Kansai
  • Тип озвучки: Многоголосая, закадровая

Описание:
Главный герой Нобуаки Каназава - новичок в школе. С предыдущими одноклассниками у него возникли сложности, поэтому теперь он не спешит заводить близкие отношения. Но тяга к общению берёт своё, и Каназава решается познакомиться с ребятами. И в тот же самый день всем одноклассникам приходит на телефон одно и то же сообщение от незнакомца по имени "Король”. Никто не обращает внимания, кроме Нобуаки, ведь эта игра уже знакома ему, игра с самой смертью. Но у каждой игры есть свои правила, и эта - не исключение. Весь класс обязан принимать в ней участие, выполнять приказы "Короля” необходимо в течение суток, ослушавшихся ждёт наказание, бросать игру на полпути тоже строго запрещается. Какие же задания будут поступать ребятам, и как они будут с ними справляться? Все ли дойдут до конца, и какими будут наказания? Узнать можно, лишь начав игру!
Качество: WEB-DLRip | Энкод: HorribleSubs
Язык озвучки: Японский и Русский
Формат: MKV
Видео: x264, 1280x720, ~1 776 kbps, 23.976 fps
Аудио: AAC, 128 kbps, 44.1 kHz, 2 ch
Аудио: AAC, 192 kbps, 48.0 kHz, 2 ch
01. Begin Again (Break Again)
02. Chaos (Scars Disorder)
03. Friendship (Melting Emotion)
04. Breakthrough (Solution | Hades)
General
Unique ID : 201550590818565286301223918830368926059 (0x97A13B5855DD78168A8C514512FD296B)
Complete name : Ousama Game [KANSAI]\[KANSAI] Ousama Game - 01 [720p].mkv
Format : Matroska
Format version : Version 4 / Version 2
File size : 355 MiB
Duration : 23 min 41 s
Overall bit rate : 2 094 kb/s
Encoded date : UTC 2017-10-10 12:50:06
Writing application : mkvmerge v16.0.0 ('Protest') 64-bit
Writing library : libebml v1.3.5 + libmatroska v1.4.8

Video
ID : 1
Format : AVC
Format/Info : Advanced Video Codec
Format profile : High@L4
Format settings, CABAC : Yes
Format settings, RefFrames : 6 frames
Codec ID : V_MPEG4/ISO/AVC
Duration : 23 min 41 s
Bit rate : 1 776 kb/s
Width : 1 280 pixels
Height : 720 pixels
Display aspect ratio : 16:9
Frame rate mode : Variable
Frame rate : 23.976 (23976/1000) FPS
Color space : YUV
Chroma subsampling : 4:2:0
Bit depth : 8 bits
Scan type : Progressive
Bits/(Pixel*Frame) : 0.080
Stream size : 301 MiB (85%)
Writing library : x264 core 120 r2120 0c7dab9
Encoding settings : cabac=1 / ref=6 / deblock=1:1:1 / analyse=0x3:0x113 / me=umh / subme=8 / psy=1 / psy_rd=0.40:0.00 / mixed_ref=1 / me_range=16 / chroma_me=1 / trellis=1 / 8x8dct=1 / cqm=0 / deadzone=21,11 / fast_pskip=1 / chroma_qp_offset=-2 / threads=4 / sliced_threads=0 / nr=0 / decimate=1 / interlaced=0 / bluray_compat=0 / constrained_intra=0 / bframes=3 / b_pyramid=2 / b_adapt=2 / b_bias=0 / direct=3 / weightb=1 / open_gop=0 / weightp=2 / keyint=250 / keyint_min=23 / scenecut=40 / intra_refresh=0 / rc_lookahead=50 / rc=2pass / mbtree=1 / bitrate=1776 / ratetol=1.0 / qcomp=0.60 / qpmin=0 / qpmax=69 / qpstep=4 / cplxblur=20.0 / qblur=0.5 / vbv_maxrate=3552 / vbv_bufsize=8880 / nal_hrd=none / ip_ratio=1.40 / aq=1:0.60
Language : Japanese
Default : Yes
Forced : No

Audio #1
ID : 2
Format : AAC
Format/Info : Advanced Audio Codec
Format profile : LC
Codec ID : A_AAC
Duration : 23 min 41 s
Bit rate : 192 kb/s
Channel(s) : 2 channels
Channel positions : Front: L R
Sampling rate : 48.0 kHz
Frame rate : 46.875 FPS (1024 SPF)
Compression mode : Lossy
Stream size : 32.1 MiB (9%)
Language : Russian
Default : Yes
Forced : No

Audio #2
ID : 3
Format : AAC
Format/Info : Advanced Audio Codec
Format profile : LC
Codec ID : A_AAC
Duration : 23 min 41 s
Bit rate : 128 kb/s
Channel(s) : 2 channels
Channel positions : Front: L R
Sampling rate : 44.1 kHz
Frame rate : 43.066 FPS (1024 SPF)
Compression mode : Lossy
Stream size : 21.7 MiB (6%)
Language : Japanese
Default : No
Forced : No


Время раздачи: До первых сидов
[NNM-Club.name]_Ousama Game [KANSAI].torrent
 Торрент:   Зарегистрирован
 
Зарегистрируйтесь и скачайте торрент!
14,5 KB
Free Leech
Примагнититься
 Зарегистрирован:   14 Ноя 2017 22:45:34
 Размер:   1,39 GB  (
 Рейтинг:   4,3 (Голосов: 11)
 Поблагодарили:   33
 Проверка:   Оформление проверено модератором 15 Ноя 2017 00:00:20
Как cкачать  ·  Как раздать  ·  Правильно оформить  ·  Поднять ратио!  
Ampho_DnB ®
RG Аниме
 
Стаж: 5 лет 10 мес.
Сообщений: 2638
Ratio: 180,54
Поблагодарили: 71719
100%
Откуда: дует?
roody.gif
Торрент обновлен. Добавлена 2 серия.
Ampho_DnB ®
RG Аниме
 
Стаж: 5 лет 10 мес.
Сообщений: 2638
Ratio: 180,54
Поблагодарили: 71719
100%
Откуда: дует?
roody.gif
Торрент обновлен. Добавлена 3 серия.
Ampho_DnB ®
RG Аниме
 
Стаж: 5 лет 10 мес.
Сообщений: 2638
Ratio: 180,54
Поблагодарили: 71719
100%
Откуда: дует?
roody.gif
Торрент обновлен. Добавлена 4 серия.
Показать сообщения:   
Начать новую тему   Ответить на тему    Торрент-трекер NNM-Club -> Аниме с озвучкой -> Онгоинги с озвучкой Часовой пояс: GMT + 3
Страница 1 из 1