Интеллигентный торрент-трекер
canvas not supported
Нас вместе: 4 292 630

Shoujo Shuumatsu Ryokou / Girls' Last Tour / Последнее путешествие Тито и Юри [2017, TV, 1 из 12] WEB-DL 720p Raw+Rus


 
 
RSS
Начать новую тему   Ответить на тему    Торрент-трекер NNM-Club -> Аниме с озвучкой -> Онгоинги с озвучкой
Автор Сообщение
Ampho_DnB ®
RG Аниме
 
Стаж: 5 лет 9 мес.
Сообщений: 2561
Ratio: 180,148
Поблагодарили: 70825
100%
Откуда: дует?
roody.gif
Shoujo Shuumatsu Ryokou / Girls' Last Tour / Последнее путешествие Тито и Юри
Жанр: приключения, повседневность
Тип: TV-сериал
Продолжительность: 1 из 12 эпизодов по 25 минут
Выпуск: c 06.10.2017
Автор: Цукумидзу
Снято по манге: Shoujo Shuumatsu Ryokou
Режиссер: Одзаки Такахару
Производство: White Fox
Информационные ссылки: AniDB || World Art || MAL || ANN
Релиз подготовлен студией Kansai
  • Тип озвучки: Многоголосая, закадровая

Описание:
Сколько веревочке ни виться, а конец будет. Так твердит пословица, и мы прекрасно знаем, что всё не вечно, да и каждый год появляются всё новые и новые предсказания о конце света. Кто-то воспринимает их с улыбкой, кто-то всерьёз, но наш мир не может существовать вечно. Как же он встретит свой конец? И что будет после? Это аниме покажет нам один из вариантов развития событий.

Человеческая цивилизация уже когда-то достигла своего пика, и сейчас находится на стадии вымирания. Погибло не только большинство людей, но и большая часть животного мира. Огромные города, некогда оживлённые и густо населённые людьми, сейчас практически пустуют. В этом жутковатом мире живут две девочки: спокойная, тихая Чито и жизнерадостная оптимистка Юри. Однажды они решают отправиться в путешествие и исследовать развалины их любимого города Кеттенкраата. Что ожидает девочек в этой зловещей пустоте, действительно ли темнота таит в себе опасность, или же мир без людей стал только лучше?
Качество: WEB-DLRip | Энкод: HorribleSubs
Язык озвучки: Японский и Русский
Формат: MKV
Видео: x264, 1280x720, ~1 592 kbps, 23.976 fps
Аудио: AAC, 128 kbps, 48.0 kHz, 2 ch
Аудио: AAC, 192 kbps, 48.0 kHz, 2 ch
01. Starry Sky / War
General
Unique ID : 245004988120529956514002136439403949995 (0xB8523E8B66173CF48017C8D37509AFAB)
Complete name : Shoujo Shuumatsu Ryokou [KANSAI]\[KANSAI] Shoujo Shuumatsu Ryokou - 01 [720p].mkv
Format : Matroska
Format version : Version 4 / Version 2
File size : 334 MiB
Duration : 24 min 25 s
Overall bit rate mode : Variable
Overall bit rate : 1 910 kb/s
Encoded date : UTC 2017-10-10 19:17:27
Writing application : mkvmerge v16.0.0 ('Protest') 64-bit
Writing library : libebml v1.3.5 + libmatroska v1.4.8

Video
ID : 1
Format : AVC
Format/Info : Advanced Video Codec
Format profile : High@L3.1
Format settings, CABAC : Yes
Format settings, RefFrames : 5 frames
Codec ID : V_MPEG4/ISO/AVC
Duration : 24 min 25 s
Bit rate mode : Variable
Bit rate : 1 592 kb/s
Maximum bit rate : 4 500 kb/s
Width : 1 280 pixels
Height : 720 pixels
Display aspect ratio : 16:9
Frame rate mode : Constant
Frame rate : 23.976 (24000/1001) FPS
Color space : YUV
Chroma subsampling : 4:2:0
Bit depth : 8 bits
Scan type : Progressive
Bits/(Pixel*Frame) : 0.072
Stream size : 278 MiB (83%)
Language : Japanese
Default : Yes
Forced : No
Color range : Limited
Color primaries : BT.709
Transfer characteristics : BT.709
Matrix coefficients : BT.709

Audio #1
ID : 2
Format : AAC
Format/Info : Advanced Audio Codec
Format profile : LC
Codec ID : A_AAC
Duration : 24 min 25 s
Bit rate : 192 kb/s
Channel(s) : 2 channels
Channel positions : Front: L R
Sampling rate : 48.0 kHz
Frame rate : 46.875 FPS (1024 SPF)
Compression mode : Lossy
Stream size : 33.1 MiB (10%)
Language : Russian
Default : Yes
Forced : No

Audio #2
ID : 3
Format : AAC
Format/Info : Advanced Audio Codec
Format profile : LC
Codec ID : A_AAC
Duration : 24 min 25 s
Bit rate : 125 kb/s
Channel(s) : 2 channels
Channel positions : Front: L R
Sampling rate : 48.0 kHz
Frame rate : 46.875 FPS (1024 SPF)
Compression mode : Lossy
Stream size : 21.9 MiB (7%)
Language : Japanese
Default : No
Forced : No


Время раздачи: До первых сидов
[NNM-Club.name]_Shoujo Shuumatsu Ryokou [KANSAI].torrent
 Торрент:   Зарегистрирован
 
Зарегистрируйтесь и скачайте торрент!
13,5 KB

Примагнититься
 Зарегистрирован:   10 Окт 2017 22:48:12
 Размер:   334 MB  (
 Рейтинг:    (Голосов: 9)
 Поблагодарили:   19
 Проверка:   Оформление проверено модератором 11 Окт 2017 00:04:18
Как cкачать  ·  Как раздать  ·  Правильно оформить  ·  Поднять ратио!  
Показать сообщения:   
Начать новую тему   Ответить на тему    Торрент-трекер NNM-Club -> Аниме с озвучкой -> Онгоинги с озвучкой Часовой пояс: GMT + 3
Страница 1 из 1