Интеллигентный торрент-трекер
canvas not supported
Нас вместе: 4 273 777

Kujira no Kora wa Sajou ni Utau / Children of the Whales / Поющие в Песках Дети Китов [2017, TV, 6 из 12] HDTV 720p Raw+Rus


 
 
RSS
Начать новую тему   Ответить на тему    Торрент-трекер NNM-Club -> Аниме с озвучкой -> Онгоинги с озвучкой
Автор Сообщение
Ampho_DnB ®
RG Аниме
 
Стаж: 5 лет 10 мес.
Сообщений: 2645
Ratio: 180,83
Поблагодарили: 71794
100%
Откуда: дует?
roody.gif
Kujira no Kora wa Sajou ni Utau / Children of the Whales / Поющие в Песках Дети Китов
Жанр: фэнтези, мистика, драма, сёдзё
Тип: TV-сериал
Продолжительность: 6 из 12 эпизодов по 25 минут
Выпуск: c 08.10.2017
Автор: Умэда Аби
Снято по манге: Kujira no Kora wa Sajou ni Utau
Режиссер: Исигуро Кёхэй
Производство: J.C. Staff
Информационные ссылки: AniDB || World Art || MAL || ANN
Релиз подготовлен студией Студийная банда
  • Тип озвучки: Многоголосая, закадровая

Описание:
Однажды вся Земля превратилась в пустыню, покрылась полностью песком. И в этом песчаном царстве есть маленький дрейфующий островок под названием "Грязный Кит”. На островке живут люди, ни много ни мало 513 человек. Общество на этом острове довольно специфическое. Во-первых, они живут закрыто и никогда не вступают в контакт со внешним миром. Во-вторых, само общество разделено на две части, сосуществующие друг с другом: Шируши и Муины. Шируши обладают способностями, которые сокращают их жизни. Муины же ничем особым не владеют, зато и живут долго.

Юноша по имени Чакуро - сотрудник островного архива, и принадлежит к Шируши. Однажды, ему приходится обследовать заброшенный корабль, найденный островитянами. Там Чакуро ждёт неожиданная встреча, на корабле он сталкивается с незнакомой девушкой по имени Рикосу. Этот момент стал поистине легендарным, ведь выходец с "Грязного Кита” впервые повстречал чужака. Чем же обернётся их знакомство?
Качество: HDTVRip | Энкод: Leopard-Raws
Язык озвучки: Японский и Русский
Формат: MKV
Видео: x264, 1280x720, ~2 513 kbps, 23.976 fps
Аудио: AAC, 192 kbps, 48.0 kHz, 2 ch
Аудио: AAC, 183 kbps, 48.0 kHz, 2 ch
01. It was the Entirety of Our Precious World
02. Sinners of Farena
03. I`ve Had Enough of This World
04. Drown in Sand Alongside the Mud Whale
05. I Don`t Want to Run
06. Tomorrow, I Might End Up Having to Kill Someone
General
Unique ID : 246563571719534560773199878727842827978 (0xB97E6AA61962F817B226468C782E8ECA)
Complete name : Kujira no Kora wa Sajou ni Utau [StudioBand]\[StudioBand] Kujira no Kora wa Sajou ni Utau - 01 [720p].mkv
Format : Matroska
Format version : Version 4 / Version 2
File size : 496 MiB
Duration : 24 min 5 s
Overall bit rate : 2 880 kb/s
Encoded date : UTC 2017-10-15 14:33:05
Writing application : mkvmerge v17.0.0 ('Be Ur Friend') 64-bit
Writing library : libebml v1.3.5 + libmatroska v1.4.8

Video
ID : 1
Format : AVC
Format/Info : Advanced Video Codec
Format profile : High@L4.1
Format settings : CABAC / 4 Ref Frames
Format settings, CABAC : Yes
Format settings, RefFrames : 4 frames
Codec ID : V_MPEG4/ISO/AVC
Duration : 23 min 59 s
Bit rate : 2 513 kb/s
Width : 1 280 pixels
Height : 720 pixels
Display aspect ratio : 16:9
Frame rate mode : Constant
Frame rate : 23.976 (24000/1001) FPS
Color space : YUV
Chroma subsampling : 4:2:0
Bit depth : 8 bits
Scan type : Progressive
Bits/(Pixel*Frame) : 0.114
Stream size : 431 MiB (87%)
Writing library : x264 core 129 r2245+729M 1a52e03
Encoding settings : cabac=1 / ref=4 / deblock=1:1:-1 / analyse=0x3:0x113 / me=umh / subme=9 / psy=1 / fade_compensate=0.00 / psy_rd=1.00:0.00 / mixed_ref=1 / me_range=24 / chroma_me=1 / trellis=2 / 8x8dct=1 / cqm=0 / deadzone=21,11 / fast_pskip=1 / chroma_qp_offset=-2 / threads=8 / lookahead_threads=1 / sliced_threads=0 / nr=0 / decimate=1 / interlaced=0 / bluray_compat=0 / constrained_intra=0 / fgo=0 / bframes=9 / b_pyramid=2 / b_adapt=2 / b_bias=0 / direct=1 / weightb=1 / open_gop=0 / weightp=2 / keyint=240 / keyint_min=24 / scenecut=40 / intra_refresh=0 / rc=crf / mbtree=0 / crf=18.5 / qcomp=0.72 / qpmin=0 / qpmax=69 / qpstep=4 / ip_ratio=1.40 / pb_ratio=1.30 / aq=1:0.85
Language : Japanese
Default : Yes
Forced : No
Color range : Limited
Color primaries : BT.709
Transfer characteristics : BT.709
Matrix coefficients : BT.709

Audio #1
ID : 2
Format : AAC
Format/Info : Advanced Audio Codec
Format profile : LC
Codec ID : A_AAC-2
Duration : 24 min 5 s
Bit rate : 183 kb/s
Channel(s) : 2 channels
Channel positions : Front: L R
Sampling rate : 48.0 kHz
Frame rate : 46.875 FPS (1024 SPF)
Compression mode : Lossy
Stream size : 31.5 MiB (6%)
Language : Russian
Default : Yes
Forced : No

Audio #2
ID : 3
Format : AAC
Format/Info : Advanced Audio Codec
Format profile : LC
Codec ID : A_AAC-2
Duration : 23 min 59 s
Bit rate : 192 kb/s
Channel(s) : 2 channels
Channel positions : Front: L R
Sampling rate : 48.0 kHz
Frame rate : 46.875 FPS (1024 SPF)
Compression mode : Lossy
Stream size : 32.9 MiB (7%)
Language : Japanese
Default : No
Forced : No


Время раздачи: До первых сидов
[NNM-Club.name]_Kujira no Kora wa Sajou ni Utau [StudioBand].torrent
 Торрент:   Зарегистрирован
 
Зарегистрируйтесь и скачайте торрент!
15,2 KB
Free Leech
Примагнититься
 Зарегистрирован:   16 Ноя 2017 23:35:23
 Размер:   2,85 GB  (
 Рейтинг:   3,8 (Голосов: 11)
 Поблагодарили:   39
 Проверка:   Оформление проверено модератором 17 Ноя 2017 09:29:27
Как cкачать  ·  Как раздать  ·  Правильно оформить  ·  Поднять ратио!  
MakLa​ReN_S​aN​
Стаж: 1 мес. 12 дней
Сообщений: 5
Ratio: 7,203
Здраствуйте, а от КАНСАЯ будет ?)
Ampho_DnB ®
RG Аниме
 
Стаж: 5 лет 10 мес.
Сообщений: 2645
Ratio: 180,83
Поблагодарили: 71794
100%
Откуда: дует?
roody.gif
MakLaReN_SaN писал(а): Перейти к сообщению
Здраствуйте, а от КАНСАЯ будет ?)

Дублировать раздачи тут нельзя, если только в 1080 делать.
MakLa​ReN_S​aN​
Стаж: 1 мес. 12 дней
Сообщений: 5
Ratio: 7,203
Ampho_DnB писал(а): Перейти к сообщению
MakLaReN_SaN писал(а): Перейти к сообщению
Здраствуйте, а от КАНСАЯ будет ?)

Дублировать раздачи тут нельзя, если только в 1080 делать.


А можете плиз, просто как-то с кансаем интереснее.
as1000
Стаж: 9 лет 6 мес.
Сообщений: 5
Ratio: 3,635
6.02%
MakLaReN_SaN писал(а): Перейти к сообщению
Ampho_DnB писал(а): Перейти к сообщению
MakLaReN_SaN писал(а): Перейти к сообщению
Здраствуйте, а от КАНСАЯ будет ?)

Дублировать раздачи тут нельзя, если только в 1080 делать.


А можете плиз, просто как-то с кансаем интереснее.
ВЕСИТЬ БУДЕТ МНОГО
Ampho_DnB ®
RG Аниме
 
Стаж: 5 лет 10 мес.
Сообщений: 2645
Ratio: 180,83
Поблагодарили: 71794
100%
Откуда: дует?
roody.gif
Торрент обновлен. Добавлены 2 и 3 серии.
Ampho_DnB ®
RG Аниме
 
Стаж: 5 лет 10 мес.
Сообщений: 2645
Ratio: 180,83
Поблагодарили: 71794
100%
Откуда: дует?
roody.gif
Торрент обновлен. Добавлена 4 серия.
Ampho_DnB ®
RG Аниме
 
Стаж: 5 лет 10 мес.
Сообщений: 2645
Ratio: 180,83
Поблагодарили: 71794
100%
Откуда: дует?
roody.gif
Торрент обновлен. Добавлена 5 серия.
Ampho_DnB ®
RG Аниме
 
Стаж: 5 лет 10 мес.
Сообщений: 2645
Ratio: 180,83
Поблагодарили: 71794
100%
Откуда: дует?
roody.gif
Торрент обновлен. Добавлена 6 серия.
Показать сообщения:   
Начать новую тему   Ответить на тему    Торрент-трекер NNM-Club -> Аниме с озвучкой -> Онгоинги с озвучкой Часовой пояс: GMT + 3
Страница 1 из 1