Интеллигентный торрент-трекер
canvas not supported
Нас вместе: 4 269 789

Aho Girl | Дурочка (2017) [MP3|320 Kbps] <OP+ED>


 
 
RSS
Начать новую тему   Ответить на тему    Торрент-трекер NNM-Club -> Аниме музыка -> Аниме OST
Автор Сообщение
йойо ®
Стаж: 1 мес. 22 дня
Сообщений: 25
Ratio: 15,839
Поблагодарили: 53
100%
アホガール | Aho Girl | Дурочка
Год: 2017
Тип издания: OP Single, ED Single
Продолжительность: 00:39:27

Кодек: MP3
Битрейт: 320 Kbps
Трeклист:
01. Angela - 全力☆Summer!(TVアニメ「アホガール」オープニングテーマ) [00:03:54]
02. Angela - あんぢぇら音頭 [00:04:06]
03. Angela - 全力☆Summer!(off vocal version) [00:03:53]
04. Angela - あんぢぇら音頭(off vocal version) [00:04:04]

Прoдолжительность: 00:15:59
Трeклист:
01. 上坂 すみれ - 踊れ!きゅーきょく哲学 [00:04:09]
02. 上坂 すみれ - ヤバい○○ [00:03:36]
03. 上坂 すみれ - 最先端△ガール feat.内田真礼 [00:03:57]
04. 上坂 すみれ - 踊れ!きゅーきょく哲学 (Off Vocal Ver.) [00:04:09]
05. 上坂 すみれ - ヤバい○○ (Off Vocal Ver.) [00:03:36]
06. 上坂 すみれ - 最先端△ガール feat.内田真礼 (Off Vocal Ver.) [00:03:56]

Прoдолжительность: 00:23:28
Sox: первые треки из альбомов
Input File : '01. 全力☆Summer!(TVアニメ「アホガール」オープニングテーマ).mp3'
Channels : 2
Sample Rate : 44100
Precision : 16-bit
Duration : 00:03:53.26 = 10286810 samples = 17494.6 CDDA sectors
File Size : 9.36M
Bit Rate : 321k
Sample Encoding: MPEG audio (layer I, II or III)
Comments :
Title=全力☆Summer!(TVアニメ「アホガール」オープニングテーマ)
Artist=angela
Album=Zenryoku☆Summer!
Tracknumber=01
Year=2017
Genre=146
Discnumber=1

Input File : '01. 踊れ!きゅーきょく哲学.mp3'
Channels : 2
Sample Rate : 44100
Precision : 16-bit
Duration : 00:04:09.95 = 11022927 samples = 18746.5 CDDA sectors
File Size : 10.3M
Bit Rate : 329k
Sample Encoding: MPEG audio (layer I, II or III)
Comments :
Title=踊れ!きゅーきょく哲学
Artist=上坂すみれ
Album=踊れ!きゅーきょく哲学
Tracknumber=1/6
Year=2017
Genre=Anime

Время раздачи: 24/7 (до появления первых 3-5 скачавших)
[NNM-Club.name]_Aho_Girl_mp3.torrent
 Торрент:   Зарегистрирован
 
Зарегистрируйтесь и скачайте торрент!
37,9 KB
Free Leech
Примагнититься
 Зарегистрирован:   24 Окт 2017 00:34:07
 Размер:   111 MB  (
 Рейтинг:    (Голосов: 5)
 Поблагодарили:   13
 Проверка:   Оформление проверено модератором 24 Окт 2017 07:25:57
Как cкачать  ·  Как раздать  ·  Правильно оформить  ·  Поднять ратио!  
ElSwanko
Куратор Аниме
Модератор Музыки
Стаж: 11 лет 2 мес.
Сообщений: 11056
Ratio: 600,183
Поблагодарили: 41668
100%
Откуда: ур-пр​остра​нство​ преко​нтину​ума​
roody.gif
йойо
Спасибо за релиз.
Только подправьте пару моментов:
1. Постер надо сделать по-крупнее, не менее 300х300 и не более 480х640. Или не более 500х500, если брать обложку от диска. Вес не более ~100 кб.
2. Название сделайте одного размера и, желательно, одного цвета, если хотите оставить в одну строчку запись.
йойо писал(а): Перейти к сообщению
Aho garu | Aho Girl \ Aho-Girl | Дурочка \ Идиотка

Достаточно оставить одно английское название - Aho Girl, и одно русское название, как указано на World-Art.

_________________
Правила: Аниме, Манга, OST || Музыка
Помощь: Скриншоты || MediaInfo || auCDtect
йойо ®
Стаж: 1 мес. 22 дня
Сообщений: 25
Ratio: 15,839
Поблагодарили: 53
100%
Поправил,вот только в списке файлов что-то не то.

Пересоздал torrent-file,иероглифы не отображаютя в списке всёравно... кодировка?
ElSwanko
Куратор Аниме
Модератор Музыки
Стаж: 11 лет 2 мес.
Сообщений: 11056
Ratio: 600,183
Поблагодарили: 41668
100%
Откуда: ур-пр​остра​нство​ преко​нтину​ума​
roody.gif
йойо писал(а): Перейти к сообщению
иероглифы не отображаютя в списке всёравно... кодировка

Да, всё верно - движок трекера не может отобразить юникод. В самом торрент-файле они отображаются нормально, когда его скачиваешь.

_________________
Правила: Аниме, Манга, OST || Музыка
Помощь: Скриншоты || MediaInfo || auCDtect
Показать сообщения:   
Начать новую тему   Ответить на тему    Торрент-трекер NNM-Club -> Аниме музыка -> Аниме OST Часовой пояс: GMT + 3
Страница 1 из 1