Интеллигентный торрент-трекер
canvas not supported
Нас вместе: 4 271 860

Sangatsu no Lion (2017) / Мартовский лев [ТВ-2] [2017, TV, 2 из 22] WEB-DL 720p Raw+Rus


 
 
RSS
Начать новую тему   Ответить на тему    Торрент-трекер NNM-Club -> Аниме с озвучкой -> Онгоинги с озвучкой
Автор Сообщение
Ampho_DnB ®
RG Аниме
 
Стаж: 5 лет 10 мес.
Сообщений: 2649
Ratio: 180,908
Поблагодарили: 71825
100%
Откуда: дует?
roody.gif
Sangatsu no Lion (2017) / Мартовский лев [ТВ-2]
Жанр: повседневность, драма, сэйнэн
Тип: TV-сериал
Продолжительность: 2 из 22 эпизодов по 25 минут
Выпуск: c 14.10.2017
Автор: Умино Тика
Снято по манге: 3-gatsu no Lion
Режиссер: Симбо Акиюки
Производство: SHAFT
Информационные ссылки: AniDB || World Art || MAL || ANN
Релиз подготовлен студией Kansai
  • Тип озвучки: Многоголосая, закадровая

Описание:
Будучи совсем ребёнком, Рэй Кирияма потерял всю семью в страшной автокатастрофе. Его отец любил играть в сёги со своим другом, поэтому Рэй, жаждая внимания отца, начал проявлять интерес к этой игре, а позже и показывать в ней немыслимые результаты. После смерти отца, его друг забирает Рэя к себе в семью, чтобы развивать талант мальчика, и относится к нему даже лучше, чем к собственным детям. Из-за этого Рэй испытывает постоянное чувство вины и, начав ещё в школе зарабатывать неплохие деньги на турнирах по сёги, съезжает на съёмную квартиру.

Одинокая жизнь оказывается не такой уж и лёгкой. Но, к счастью, он встречает сестёр Кавамото: ответственную и взрослую Акари, полную подростковых переживаний Хинату и совсем ещё крохотную Момо. У этих девочек жизнь сложилась тоже нелёгко, но они настолько светлы и добры, что умудряются обогревать своим теплом ещё и Рэя. Чувствуя эту разницу в восприятии одинаковых вещей, Рэй постепенно и сам начинает меняться. В новом сезоне мы увидим продолжение этой истории.
Качество: WEB-DLRip | Энкод: HorribleSubs
Язык озвучки: Японский и Русский
Формат: MKV
Видео: x264, 1280x720, ~1 776 kbps, 23.976 fps
Аудио: AAC, 128 kbps, 44.1 kHz, 2 ch
Аудио: AAC, 192 kbps, 48.0 kHz, 2 ch
01. Setting Sun / Ramune
02. Chaos / Kumakura
General
Unique ID : 228389600210363512708064519347818400813 (0xABD23CAC3D7D96B88C3670FB136B0C2D)
Complete name : Sangatsu no Lion [TV2] [KANSAI]\[KANSAI] Sangatsu no Lion - 01 [720p].mkv
Format : Matroska
Format version : Version 4 / Version 2
File size : 374 MiB
Duration : 25 min 0 s
Overall bit rate : 2 091 kb/s
Encoded date : UTC 2017-10-28 19:56:46
Writing application : mkvmerge v17.0.0 ('Be Ur Friend') 64-bit
Writing library : libebml v1.3.5 + libmatroska v1.4.8

Video
ID : 1
Format : AVC
Format/Info : Advanced Video Codec
Format profile : High@L4
Format settings : CABAC / 6 Ref Frames
Format settings, CABAC : Yes
Format settings, RefFrames : 6 frames
Codec ID : V_MPEG4/ISO/AVC
Duration : 25 min 0 s
Bit rate : 1 776 kb/s
Width : 1 280 pixels
Height : 720 pixels
Display aspect ratio : 16:9
Frame rate mode : Variable
Frame rate : 23.976 (23976/1000) FPS
Color space : YUV
Chroma subsampling : 4:2:0
Bit depth : 8 bits
Scan type : Progressive
Bits/(Pixel*Frame) : 0.080
Stream size : 317 MiB (85%)
Writing library : x264 core 120 r2120 0c7dab9
Encoding settings : cabac=1 / ref=6 / deblock=1:1:1 / analyse=0x3:0x113 / me=umh / subme=8 / psy=1 / psy_rd=0.40:0.00 / mixed_ref=1 / me_range=16 / chroma_me=1 / trellis=1 / 8x8dct=1 / cqm=0 / deadzone=21,11 / fast_pskip=1 / chroma_qp_offset=-2 / threads=4 / sliced_threads=0 / nr=0 / decimate=1 / interlaced=0 / bluray_compat=0 / constrained_intra=0 / bframes=3 / b_pyramid=2 / b_adapt=2 / b_bias=0 / direct=3 / weightb=1 / open_gop=0 / weightp=2 / keyint=250 / keyint_min=23 / scenecut=40 / intra_refresh=0 / rc_lookahead=50 / rc=2pass / mbtree=1 / bitrate=1776 / ratetol=1.0 / qcomp=0.60 / qpmin=0 / qpmax=69 / qpstep=4 / cplxblur=20.0 / qblur=0.5 / vbv_maxrate=3552 / vbv_bufsize=8880 / nal_hrd=none / ip_ratio=1.40 / aq=1:0.60
Language : Japanese
Default : Yes
Forced : No

Audio #1
ID : 2
Format : AAC
Format/Info : Advanced Audio Codec
Format profile : LC
Codec ID : A_AAC-2
Duration : 25 min 0 s
Bit rate : 192 kb/s
Channel(s) : 2 channels
Channel positions : Front: L R
Sampling rate : 48.0 kHz
Frame rate : 46.875 FPS (1024 SPF)
Compression mode : Lossy
Stream size : 33.9 MiB (9%)
Language : Russian
Default : Yes
Forced : No

Audio #2
ID : 3
Format : AAC
Format/Info : Advanced Audio Codec
Format profile : LC
Codec ID : A_AAC-2
Duration : 25 min 0 s
Bit rate : 128 kb/s
Channel(s) : 2 channels
Channel positions : Front: L R
Sampling rate : 44.1 kHz
Frame rate : 43.066 FPS (1024 SPF)
Compression mode : Lossy
Stream size : 22.9 MiB (6%)
Language : Japanese
Default : No
Forced : No


Время раздачи: До первых сидов
[NNM-Club.name]_Sangatsu no Lion [TV2] [KANSAI].torrent
 Торрент:   Зарегистрирован
 
Зарегистрируйтесь и скачайте торрент!
15,1 KB
Free Leech
Примагнититься
 Зарегистрирован:   01 Ноя 2017 20:51:32
 Размер:   748 MB  (
 Рейтинг:   4,3 (Голосов: 11)
 Поблагодарили:   10
 Проверка:   Оформление проверено модератором 01 Ноя 2017 20:55:59
Как cкачать  ·  Как раздать  ·  Правильно оформить  ·  Поднять ратио!  
Ampho_DnB ®
RG Аниме
 
Стаж: 5 лет 10 мес.
Сообщений: 2649
Ratio: 180,908
Поблагодарили: 71825
100%
Откуда: дует?
roody.gif
Торрент обновлен. Переименована папка и 1 серия, добавлена 2 серия.
Показать сообщения:   
Начать новую тему   Ответить на тему    Торрент-трекер NNM-Club -> Аниме с озвучкой -> Онгоинги с озвучкой Часовой пояс: GMT + 3
Страница 1 из 1