Интеллигентный торрент-трекер
canvas not supported
Нас вместе: 4 249 127

Митио Каку | Физика невозможного (2017) [M4B|AAC]


 
 
RSS
Начать новую тему   Ответить на тему    Торрент-трекер NNM-Club -> Аудио и Видео -> Аудиокниги (AAC)
Автор Сообщение
trybag ®
Стаж: 4 года 8 мес.
Сообщений: 104
Ratio: 12,613
Поблагодарили: 2827
100%
Митио Каку | Физика невозможного
Автор: Митио Каку
Год: 2017
Жанр: Учебная
Продолжительность: 17:19:28
Читает: Михаил Росляков
Издательство: Нигде не купишь

Описание: Еще совсем недавно нам трудно было даже вообразить сегодняшний мир привычных вещей. Какие самые смелые прогнозы писателей-фантастов и авторов фильмов о будущем имеют шанс сбыться у нас на глазах? На этот вопрос пытается ответить Мичио Каку, американский физик японского происхождения и один из авторов теории струн. Из книги вы узнаете, что уже в ХXI в., возможно, будут реализованы силовые поля, невидимость, чтение мыслей, связь с внеземными цивилизациями и даже телепортация и межзвездные путешествия.

Формат: M4B
Аудиокодек: AAC
Битрейт: 96 kbps
Частота: 44,1 KHz
Разбивка на главы: есть
Вшитая обложка: есть
Музыкальное сопровождение: Нет

Физика невозможного
Введение
Часть I Невозможности I класса
1. Защитное силовое поле
2. Невидимость
3. Фазеры и Звезды Смерти
4. Телепортация
5. Телепатия
6. Телекинез
7. Роботы
8. Внеземные цивилизации и летающие тарелки
9. Звездолеты
10. Антивещество и антивселенные
Часть II. Невозможности II класса
11. Быстрее света
12. Путешествия во времени
13. Параллельные вселенные
Часть III. Невозможности III класса
14. Вечный двигатель
15. Предвидение будущего
Эпилог. Будущее невозможного

Код: выделить все
Общее
Полное имя                               : Физика невозможного 1.m4b
Формат                                   : MPEG-4
Профиль формата                          : Apple audio with iTunes position
Идентификатор кодека                     : M4B  (M4B /mp42/isom)
Размер файла                             : 483 Мбайт
Продолжительность                        : 11 ч.
Режим общего битрейта                    : Переменный
Общий поток                              : 97,5 Кбит/сек
Альбом                                   : Физика невозможного
Альбом/Исполнитель                       : Митио Каку
Трек                                     : Физика невозможного 1
Трек/Положение                           : 1
Трек/Всего                               : 2
Исполнитель                              : Митио Каку
Композитор                               : Михаил Росляков
Жанр                                     : Учебная
Дата записи                              : 2017
Дата кодирования                         : UTC 2017-11-21 19:33:57
Дата пометки                             : UTC 2017-11-21 23:08:41
Обложка                                  : Yes
©art                                     : Митио Каку

Аудио
Идентификатор                            : 1
Формат                                   : AAC
Формат/Информация                        : Advanced Audio Codec
Профиль формата                          : LC
Идентификатор кодека                     : mp4a-40-2
Продолжительность                        : 11 ч.
Вид битрейта                             : Переменный
Битрейт                                  : 96,0 Кбит/сек
Каналы                                   : 2 канала
Расположение каналов                     : Front: L R
Частота                                  : 44,1 КГц
Частота кадров                           : 43,066 кадра/сек (1024 SPF)
Метод сжатия                             : С потерями
Размер потока                            : 476 Мбайт (98%)
Дата кодирования                         : UTC 2017-11-21 19:33:57
Дата пометки                             : UTC 2017-11-21 23:08:41
Menus                                    : 2

Меню
Идентификатор                            : 2
Идентификатор кодека                     : text
Продолжительность                        : 11 ч.
Язык                                     : English
Дата кодирования                         : UTC 2017-11-21 23:07:34
Дата пометки                             : UTC 2017-11-21 23:07:34
Menu For                                 : 1
Duration_FirstFrame                      : -37881384
00:00:00.000                             : Введение
00:30:49.840                             : Часть I. Невозможности I класса
Вид битрейта                             : VBR

Общее
Полное имя                               : Физика невозможного 2.m4b
Формат                                   : MPEG-4
Профиль формата                          : Apple audio with iTunes position
Идентификатор кодека                     : M4B  (M4B /mp42/isom)
Размер файла                             : 242 Мбайт
Продолжительность                        : 5 ч. 46 м.
Режим общего битрейта                    : Переменный
Общий поток                              : 97,6 Кбит/сек
Альбом                                   : Физика невозможного
Альбом/Исполнитель                       : Митио Каку
Трек                                     : Физика невозможного 2
Трек/Положение                           : 2
Трек/Всего                               : 2
Исполнитель                              : Митио Каку
Композитор                               : Михаил Росляков
Жанр                                     : Учебная
Дата записи                              : 2017
Дата кодирования                         : UTC 2017-11-21 19:51:13
Дата пометки                             : UTC 2017-11-21 23:08:48
Обложка                                  : Yes
©art                                     : Митио Каку

Аудио
Идентификатор                            : 1
Формат                                   : AAC
Формат/Информация                        : Advanced Audio Codec
Профиль формата                          : LC
Идентификатор кодека                     : mp4a-40-2
Продолжительность                        : 5 ч. 46 м.
Вид битрейта                             : Переменный
Битрейт                                  : 96,0 Кбит/сек
Каналы                                   : 2 канала
Расположение каналов                     : Front: L R
Частота                                  : 44,1 КГц
Частота кадров                           : 43,066 кадра/сек (1024 SPF)
Метод сжатия                             : С потерями
Размер потока                            : 238 Мбайт (98%)
Дата кодирования                         : UTC 2017-11-21 19:51:13
Дата пометки                             : UTC 2017-11-21 23:08:48
Menus                                    : 2

Меню
Идентификатор                            : 2
Идентификатор кодека                     : text
Продолжительность                        : 5 ч. 46 м.
Язык                                     : English
Дата кодирования                         : UTC 2017-11-21 23:08:09
Дата пометки                             : UTC 2017-11-21 23:08:09
Menu For                                 : 1
Duration_FirstFrame                      : 6382934
Duration_LastFrame                       : -1266834
00:00:00.000                             : Часть II. Невозможности II класса
03:13:26.749                             : Часть III. Невозможности III класса
04:40:30.565                             : Эпилог. Будущее невозможного
Вид битрейта                             : VBR

[NNM-Club.name]_Fizika nevozmozhnogo.torrent
 Торрент:   Зарегистрирован
 
Зарегистрируйтесь и скачайте торрент!
14,6 KB
Free Leech
Примагнититься
 Зарегистрирован:   21 Ноя 2017 23:33:10
 Размер:   725 MB  (
 Рейтинг:    (Голосов: 5)
 Поблагодарили:   52
 Проверка:   Оформление проверено модератором 24 Ноя 2017 07:59:38
Как cкачать  ·  Как раздать  ·  Правильно оформить  ·  Поднять ратио!  
Показать сообщения:   
Начать новую тему   Ответить на тему    Торрент-трекер NNM-Club -> Аудио и Видео -> Аудиокниги (AAC) Часовой пояс: GMT + 3
Страница 1 из 1