Интеллигентный торрент-трекер
canvas not supported
Нас вместе: 4 220 254

Sting - Live At The Olympia Paris (2017) BDRip [H.264/720p-LQ]


 
 
RSS
Начать новую тему   Ответить на тему    Торрент-трекер NNM-Club -> Театр и Музыкальное видео -> Концерты (HD)
Автор Сообщение
EugenAS ®
Стаж: 4 года 2 мес.
Сообщений: 195
Ratio: 52,229
Поблагодарили: 2353
100%
Sting - Live At The Olympia Paris (2017) BDRip [H.264/720p-LQ]
Производство Deutsche Grammophon
Режиссер: Alexandre Buisson
Жанр: Rock, Pop, New Wave, Jazz
Состав: Sting - vocals, bass guitar, acoustic guitar; Dominic Miller - guitar; Josh Freese - drums; Rufus Miller - guitar; Percy Cardona - accordion; Joe Sumner, Diego Navaira, Jerry Fuentes - backing vocals; The Last Bandoleros - special gues

Продолжительность: 01:42:03+00:36:12 (Bonus)
Качество видео: BDRip

Видео: AVC/H.264, 1280x720, ~4000 Kbps
Аудио1: DTS, 6 ch, 1509 Kbps, 48 KHz
Аудио2: FLAC, 2 ch, 1042 Kbps, 48 KHz
Аудио2 (Bonus): FLAC, 2 ch, 877 Kbps, 48 KHz

Треклист:
1 Synchronicity II
2 Spirits In The Material World
3 Englishman in New York
4 I Can't Stop Thinking About You
5 One Fine Day
6 She's Too Good For Me
7 I Hung My Head
8 Fields Of Gold
9 Petrol Head
10 Down, Down, Down
11 Shape Of My Heart
12 Pretty Young Soldier
13 Message In A Bottle
14 Ashes To Ashes (Sting & Joe Sumner)
15 50,000
16 Walking On The Moon
17 So Lonely
18 Desert Rose
19 Roxanne
20 Next To You
21 Every Breath You Take
22 Fragile
General
Unique ID : 194686694915266745146870833045285827037 (0x92774B262A5EC3BD8FB179E4CB96F1DD)
Complete name : D:\Temp\Sting - Live At The Olympia Paris 2017\Sting - Live At The Olympia Paris.2017.BDRip720p.Bonus.mkv
Format : Matroska
Format version : Version 2
File size : 1.62 GiB
Duration : 36 min 11 s
Overall bit rate mode : Variable
Overall bit rate : 6 388 kb/s
Movie name : Sting - Live At The Olympia Paris.2017.BDRip720p.Bonus @  .org
Encoded date : UTC 2017-11-22 17:34:50
Writing application : mkvmerge v9.8.0 ('Kuglblids') 64bit
Writing library : libebml v1.3.4 + libmatroska v1.4.5

Video
ID : 1
Format : AVC
Format/Info : Advanced Video Codec
Format profile : High@L4.1
Format settings, CABAC : Yes
Format settings, ReFrames : 9 frames
Codec ID : V_MPEG4/ISO/AVC
Duration : 36 min 11 s
Bit rate : 4 000 kb/s
Width : 1 280 pixels
Height : 720 pixels
Display aspect ratio : 16:9
Frame rate mode : Constant
Frame rate : 29.970 (30000/1001) FPS
Color space : YUV
Chroma subsampling : 4:2:0
Bit depth : 8 bits
Scan type : Progressive
Bits/(Pixel*Frame) : 0.145
Stream size : 1.01 GiB (63%)
Title : anbelk27 @  .org
Writing library : x264 core 152 r2851 ba24899
Encoding settings : cabac=1 / ref=9 / deblock=1:-1:-1 / analyse=0x3:0x133 / me=umh / subme=11 / psy=1 / psy_rd=1.13:0.08 / mixed_ref=1 / me_range=32 / chroma_me=1 / trellis=2 / 8x8dct=1 / cqm=0 / deadzone=21,11 / fast_pskip=1 / chroma_qp_offset=-3 / threads=6 / lookahead_threads=1 / sliced_threads=0 / nr=0 / decimate=1 / interlaced=0 / bluray_compat=0 / constrained_intra=0 / bframes=9 / b_pyramid=2 / b_adapt=2 / b_bias=0 / direct=3 / weightb=1 / open_gop=0 / weightp=2 / keyint=300 / keyint_min=29 / scenecut=50 / intra_refresh=0 / rc_lookahead=60 / rc=2pass / mbtree=1 / bitrate=4000 / ratetol=1.0 / qcomp=0.60 / qpmin=0 / qpmax=69 / qpstep=4 / cplxblur=20.0 / qblur=0.5 / vbv_maxrate=50000 / vbv_bufsize=62500 / nal_hrd=none / filler=0 / ip_ratio=1.40 / aq=1:1.00
Default : Yes
Forced : No

Audio #1
ID : 2
Format : DTS
Format/Info : Digital Theater Systems
Mode : 16
Format settings, Endianness : Big
Codec ID : A_DTS
Duration : 36 min 11 s
Bit rate mode : Constant
Bit rate : 1 509 kb/s
Channel(s) : 6 channels
Channel positions : Front: L C R, Side: L R, LFE
Sampling rate : 48.0 kHz
Frame rate : 93.750 FPS (512 spf)
Bit depth : 16 bits
Compression mode : Lossy
Stream size : 391 MiB (24%)
Title : DTS 5.1 @ 16 bit
Default : Yes
Forced : No

Audio #2
ID : 3
Format : FLAC
Format/Info : Free Lossless Audio Codec
Codec ID : A_FLAC
Duration : 36 min 11 s
Bit rate mode : Variable
Bit rate : 877 kb/s
Channel(s) : 2 channels
Channel positions : Front: L R
Sampling rate : 48.0 kHz
Frame rate : 11.719 FPS (4096 spf)
Bit depth : 16 bits
Stream size : 227 MiB (14%)
Title : FLAC 2.0 @ 16 bit
Writing library : libFLAC 1.2.1 (UTC 2007-09-17)
Default : No
Forced : No

Menu
00:00:00.000 : en: 1. Heading South On The Great North Road (Sting & Joe Sumner)
00:04:37.010 : en: 2. Looking For Me, Looking For You (Joe Sumner)
00:08:00.947 : en: 3. Don't Change The Love (Joe Sumner)
00:12:00.053 : en: 4. Jellybean (Joe Sumner)
00:15:10.643 : en: 5. Maria (The Last Bandoleros)
00:18:22.501 : en: 6. Riverman (The Last Bandoleros)
00:22:41.961 : en: 7. Take Me To It (The Last Bandoleros)
00:27:04.823 : en: 8. I Don't Want To Know (The Last Bandoleros)
00:31:40.599 : en: 9. Where Do You Go? (The Last Bandoleros)
Скриншоты:

Все одноименные релизы в Клубе
Время раздачи: Круглосуточно (до появления первых 3-5 скачавших)
[NNM-Club.tv]_Sting - Live At The Olympia Paris 2017.torrent
 Торрент: Платиновая раздача  Зарегистрирован
 
Скачать


Примагнититься
 Зарегистрирован:   23 Ноя 2017 21:32:40
 Размер:   6,29 GB  (
 Рейтинг:   5 (Голосов: 17)
 Поблагодарили:   97
 Проверка:   Оформление проверено модератором 23 Ноя 2017 22:22:46
Как cкачать  ·  Как раздать  ·  Правильно оформить  ·  Поднять ратио!  
angelofnet
Стаж: 10 лет 4 мес.
Сообщений: 353
Ratio: 56,11
100%
russia.gif
Рип в 1080 бы... :смущение:

_________________
-= В жизни всё не так, как на самом деле =-
Показать сообщения:   
Начать новую тему   Ответить на тему    Торрент-трекер NNM-Club -> Театр и Музыкальное видео -> Концерты (HD) Часовой пояс: GMT + 3
Страница 1 из 1