Интеллигентный торрент-трекер
canvas not supported
Нас вместе: 4 248 061

Полтора шпиона / Central Intelligence (2016) UHD BDRemux [H.265/2160p] [4K, HDR, 10-bit] [Театральная версия]


 
 
RSS
Начать новую тему   Ответить на тему    Торрент-трекер NNM-Club -> Зарубежное кино -> Зарубежные Фильмы (UHD)
Автор Сообщение
Ultra HD Video ®
Uploader 100+
 
Стаж: 6 лет 8 мес.
Сообщений: 5869
Ratio: 1155,806
Раздал: 199,2 TB
Поблагодарили: 809000
100%
Полтора шпиона / Central Intelligence (2016) UHD BDRemux [H.265/2160p] [4K, HDR, 10-bit] [Театральная версия]

Производство: США
Жанр: боевик, комедия, криминал

Режиссер: Роусон Маршалл Тёрбер
Актеры: Дуэйн Джонсон, Кевин Харт, Эми Райан, Даниэль Николет, Джейсон Бейтман, Аарон Пол, Райан Хансен, Тим Гриффин, Тимоти Джон Смит, Сион Келепи, Дилан Бойяк, Томас Кречман

Описание:
От лайка в соцсети до спасения мира - один шаг. Сегодня ты френдишь бывшего одноклассника, а завтра - он тащит тебя под пули. Кто ж знал, что заядлый любитель пончиков превратится в похожего на скалу супершпиона.


Возраст: 16+ (зрителям, достигшим 16 лет)
Рейтинг MPAA: PG-13 (детям до 13 лет просмотр нежелателен)

Релиз от: TERMiNAL, ExKinoRay
Продолжительность: 01:47:37
Качество видео: UHD BDRemux (HDR)
Перевод: Дублированный (Лицензия BD CEE)
Субтитры: Русские (full,forced), английские

Видео: HEVC/H.265, 3840x2160p, (16:9), 50.3 Mb/s, 23.976 fps
Аудио: DTS, 6 ch, 768 kbps - Русский
Аудио: DTS-HD MA, 6 ch, 3712 kbps - Английский

Исходный диск на Blu-ray.com
Просмотр 4K HDR-контента на ПК

General
Unique ID : 218219059562161123425264006264347961865 (0xA42B764DCD8E11B9B3294FF1A1D42A09)
Complete name : G:VideoSSDCentral.Intelligence.2016.Lic.BDREMUX.2160p.4K.UltraHD.HEVC.HDR.ExKinoRay.mkv
Format : Matroska
Format version : Version 4 / Version 2
File size : 41.2 GiB
Duration : 1 h 47 min
Overall bit rate : 54.8 Mb/s
Movie name : Release by ExKinoRay
Encoded date : UTC 2017-10-31 06:21:47
Writing application : mkvmerge v17.0.0 ('Be Ur Friend') 64-bit
Writing library : libebml v1.3.5 + libmatroska v1.4.8
Cover : Yes
Attachments : cover.jpg

Video
ID : 1
Format : HEVC
Format/Info : High Efficiency Video Coding
Format profile : Main 10@L5.1@High
Codec ID : V_MPEGH/ISO/HEVC
Duration : 1 h 47 min
Bit rate : 50.3 Mb/s
Width : 3 840 pixels
Height : 2 160 pixels
Display aspect ratio : 16:9
Frame rate mode : Constant
Frame rate : 23.976 (24000/1001) FPS
Color space : YUV
Chroma subsampling : 4:2:0 (Type 2)
Bit depth : 10 bits
Bits/(Pixel*Frame) : 0.253
Stream size : 37.8 GiB (92%)
Language : English
Default : Yes
Forced : No
Color range : Limited
Color primaries : BT.2020
Transfer characteristics : PQ
Matrix coefficients : BT.2020 non-constant
Mastering display color pri : R: x=0.680000 y=0.320000, G: x=0.265000 y=0.690000, B: x=0.150000 y=0.060000, White point: x=0.312700 y=0.329000
Mastering display luminance : min: 0.0050 cd/m2, max: 4000.0000 cd/m2
Maximum Content Light Level : 2084 cd/m2
Maximum Frame-Average Light : 892 cd/m2

Audio #1
ID : 2
Format : DTS
Format/Info : Digital Theater Systems
Mode : 16
Format settings, Endianness : Big
Codec ID : A_DTS
Duration : 1 h 47 min
Bit rate mode : Constant
Bit rate : 768 kb/s
Channel(s) : 6 channels
Channel positions : Front: L C R, Side: L R, LFE
Sampling rate : 48.0 kHz
Frame rate : 93.750 FPS (512 SPF)
Bit depth : 24 bits
Compression mode : Lossy
Stream size : 591 MiB (1%)
Title : Dub [License]
Language : Russian
Default : Yes
Forced : No

Audio #2
ID : 3
Format : DTS
Format/Info : Digital Theater Systems
Format profile : MA / Core
Mode : 16
Format settings, Endianness : Big
Codec ID : A_DTS
Duration : 1 h 47 min
Bit rate mode : Variable / Constant
Bit rate : 3 712 kb/s / 1 509 kb/s
Channel(s) : 6 channels
Channel positions : Front: L C R, Side: L R, LFE
Sampling rate : 48.0 kHz
Frame rate : 93.750 FPS (512 SPF)
Bit depth : 24 bits
Compression mode : Lossless / Lossy
Delay relative to video : 4 ms
Stream size : 2.79 GiB (7%)
Title : Original
Language : English
Default : No
Forced : No

Text #1
ID : 4
Format : UTF-8
Codec ID : S_TEXT/UTF8
Codec ID/Info : UTF-8 Plain Text
Duration : 1 h 38 min
Bit rate : 4 b/s
Count of elements : 62
Stream size : 3.08 KiB (0%)
Title : Forced
Language : Russian
Default : Yes
Forced : No

Text #2
ID : 5
Format : UTF-8
Codec ID : S_TEXT/UTF8
Codec ID/Info : UTF-8 Plain Text
Duration : 1 h 46 min
Bit rate : 138 b/s
Count of elements : 2048
Stream size : 108 KiB (0%)
Title : Full
Language : Russian
Default : No
Forced : No

Text #3
ID : 6
Format : UTF-8
Codec ID : S_TEXT/UTF8
Codec ID/Info : UTF-8 Plain Text
Duration : 1 h 45 min
Bit rate : 83 b/s
Count of elements : 2273
Stream size : 64.6 KiB (0%)
Title : Full
Language : English
Default : No
Forced : No

Menu
00:00:00.000 : en:00:00:00.000
00:09:32.238 : en:00:09:32.238
00:21:47.848 : en:00:21:47.848
00:32:26.861 : en:00:32:26.861
00:47:37.104 : en:00:47:37.104
00:57:28.528 : en:00:57:28.528
01:03:15.750 : en:01:03:15.750
01:17:23.222 : en:01:17:23.222
01:26:11.541 : en:01:26:11.541
01:36:29.992 : en:01:36:29.992
01:48:21.411 : en:01:48:21.411
Скриншоты:


Все одноименные релизы в клубе

Время раздачи: 24/7 (до появления первых 3-5 скачавших)
[NNM-Club.tv]_Central.Intelligence.2016.Lic.BDREMUX.2160p.4K.UltraHD.HEVC.HDR.ExKinoRay.torrent
 Торрент: Золотая раздача  Зарегистрирован
 
Зарегистрируйтесь и скачайте торрент!
206 KB
Free Leech
Примагнититься
 Зарегистрирован:   26 Ноя 2017 01:43:30
 Размер:   41,2 GB  (
 Рейтинг:   4,6 (Голосов: 14)
 Поблагодарили:   64
 Проверка:   Оформление проверено модератором 26 Ноя 2017 08:56:44
Как cкачать  ·  Как раздать  ·  Правильно оформить  ·  Поднять ратио!  
gnomikg4
Стаж: 5 лет 9 мес.
Сообщений: 3
Ratio: 14,205
100%
Почему всегд с чёрными рамками?
_zondar_
Стаж: 7 лет 3 мес.
Сообщений: 64
Ratio: 20,069
Поблагодарили: 297
100%
Потому что соотношения сторон вашего монитора / телевизора не 21:9
andre​ykoro​bko​
Стаж: 1 год
Сообщений: 2
Ratio: 116,292
100%
фильм хороший
levini
Стаж: 3 года 9 мес.
Сообщений: 1
Ratio: 22,405
0%
Что значит театральная версия!!!????????
Ultra HD Video ®
Uploader 100+
 
Стаж: 6 лет 8 мес.
Сообщений: 5869
Ratio: 1155,806
Раздал: 199,2 TB
Поблагодарили: 809000
100%
levini
Эту версию фильма показывали в кино.
Показать сообщения:   
Начать новую тему   Ответить на тему    Торрент-трекер NNM-Club -> Зарубежное кино -> Зарубежные Фильмы (UHD) Часовой пояс: GMT + 3
Страница 1 из 1