Интеллигентный торрент-трекер
canvas not supported
Нас вместе: 4 220 254

Starsailor - All This Life (2017) [FLAC|Lossless|tracks + .cue] <Brit Pop, Indie>


 
 
RSS
Начать новую тему   Ответить на тему    Торрент-трекер NNM-Club -> Rock, Alternative, Punk, Metal -> Alternative, Punk (Lossless)
Автор Сообщение
zapahgary ®
Стаж: 7 лет 7 мес.
Сообщений: 230
Ratio: 75,199
Поблагодарили: 4029
100%
russia.gif
Starsailor - All This Life (2017)
Жанр: Brit Pop, Indie
Издание: Cooking Vinyl - COOKDL658
Продолжительность: 00:45:22

Кодек: FLAC
Битрейт: Lossless
Тип рипа: tracks + .cue

Треклист:
01. Listen to Your Heart (03:52)
02. All This Life (02:55)
03. Take a Little Time (03:26)
04. Caught in the Middle (03:50)
05. Sunday Best (05:24)
06. Blood (04:51)
07. Best of Me (03:37)
08. Break the Cycle (03:18)
09. Fallout (05:52)
10. Fia (F**k It All) (06:04)
11. No One Else (02:14)

foobar2000 1.3.16 / Замер динамического диапазона (DR) 1.1.1
Дата отчёта: 2017-11-29 09:05:23

--------------------------------------------------------------------------------
Анализ: Starsailor / All This Life
--------------------------------------------------------------------------------

DR Пики RMS Продолжительность трека
--------------------------------------------------------------------------------
DR5 -0.48 дБ -7.87 дБ 3:52 01-Listen to Your Heart
DR6 -0.48 дБ -8.38 дБ 2:55 02-All This Life
DR7 -0.48 дБ -9.51 дБ 3:26 03-Take a Little Time
DR8 -0.48 дБ -11.07 дБ 3:50 04-Caught in the Middle
DR7 -0.48 дБ -10.61 дБ 5:24 05-Sunday Best
DR7 -0.48 дБ -10.24 дБ 4:51 06-Blood
DR7 -0.48 дБ -8.88 дБ 3:37 07-Best of Me
DR7 -0.48 дБ -9.84 дБ 3:18 08-Break the Cycle
DR6 -0.48 дБ -9.22 дБ 5:52 09-Fallout
DR9 -0.48 дБ -10.39 дБ 6:04 10-FIA (Fuck It All)
DR12 -1.22 дБ -17.19 дБ 2:14 11-No One Else
--------------------------------------------------------------------------------

Количество треков: 11
Реальные значения DR: DR8

Частота: 44100 Гц
Каналов: 2
Разрядность: 16
Битрейт: 651 кбит/с
Кодек: FLAC
================================================================================
YouTube
Время раздачи: 24/7 (круглосуточно)


Поглощение/вытеснение
Только с согласия релизера

Bigbeer
[NNM-Club.name]_Starsailor - All This Life (2017)(FLAC)(CD).torrent
 Торрент:   Зарегистрирован
 
Зарегистрируйтесь и скачайте торрент!
23,6 KB

Примагнититься
 Зарегистрирован:   29 Ноя 2017 09:52:25
 Размер:   288 MB  (
 Рейтинг:    (Голосов: 4)
 Поблагодарили:   29
 Проверка:   Оформление проверено модератором 29 Ноя 2017 15:07:51
Как cкачать  ·  Как раздать  ·  Правильно оформить  ·  Поднять ратио!  
Показать сообщения:   
Начать новую тему   Ответить на тему    Торрент-трекер NNM-Club -> Rock, Alternative, Punk, Metal -> Alternative, Punk (Lossless) Часовой пояс: GMT + 3
Страница 1 из 1